img image001 image001 image001 image001 image001 image001 image001 image001 image001 image001 image001 image001 image001 image001 image001

Planets Sun Sun Sun
Статистика раздачи
Автор: Снежана | Размер: 9.82 ГБ | Добавлен: 26 июл 2013
Раздают: 1    Качают: 1
Скачать торрент
Скачать торрент
Описание торрента

СообщениеДобавлено: 26 июл 2013 

#77

Информация о фильме
Название: Большая Ж
Оригинальное название: The Big C
Год выхода: 2012
Жанр: драма, комедия
Режиссер: Дарлин Хант, Билл Кондон
В ролях: Надя Дажани, Уильям Даффи, Pedro Hossi, Оливер Плэтт, Гэбриел Бассо, Fatimah Hassan, Джон Бенжамин Хикки, Саймон Кассианидес, Лора Линни, Джеймс Шрэм и др.



О фильме:
Женщине из пригорода, жене и матери ставят страшный диагноз — рак. Она вынуждена находить светлые стороны в своей ситуации. Этот сериал — метафора о том, как должны жить все мы, но никогда не живем. О том, что надо наслаждаться моментом.

Страна: США
Продолжительность: ~30 мин
Перевод: Профессиональный (двухголосый закадровый) (Елена Хайдурова и Алексей Серегин)

Файл
Кодек: MPEG-4 AVC
Качество: HDTVRip 720р
Видео: 1280x720 at 23.976 fps, MPEG-4 AVC, 4200 kbps avg, 0.190 b/pixel
Звук:
Аудио #1: Russian 48 kHz, Dolby Digital 5.1, ~384.00 kbps avg |Двухголосый закадровый, Ozz|
Аудио #2: English 48 kHz, Dolby Digital 5.1, ~384.00 kbps avg|Oригинал
Субтитры: English, Russian

Дорожка №1 сделана Vlad1k(H_), за что ему большое спасибо.

Семпл

Код:
General
Unique ID : 246091197111275894440495547242289240594 (0xB92370C8526D11AA9156703C53B31A12)
Complete name : D:The Big C Season 3 720p OzzThe.Big.C.S03E01.ShoHD.On.Demand.720р.DD.5.1.mkv
Format : Matroska
Format version : Version 2
File size : 989 MiB
Duration : 27mn 49s
Overall bit rate : 4 970 Kbps
Encoded date : UTC 2012-04-18 16:01:01
Writing application : mkvmerge v5.2.1 ('A Far Off Place') built on Jan 2 2012 23:21:10
Writing library : libebml v1.2.3 + libmatroska v1.3.0

Video
ID : 1
Format : AVC
Format/Info : Advanced Video Codec
Format profile : High@L4.1
Format settings, CABAC : Yes
Format settings, ReFrames : 9 frames
Codec ID : V_MPEG4/ISO/AVC
Duration : 27mn 49s
Bit rate : 4 200 Kbps
Width : 1 280 pixels
Height : 720 pixels
Display aspect ratio : 16:9
Frame rate : 23.976 fps
Color space : YUV
Chroma subsampling : 4:2:0
Bit depth : 8 bits
Scan type : Progressive
Bits/(Pixel*Frame) : 0.190
Stream size : 817 MiB (83%)
Writing library : x264 core 115 r1937 aa21558
Encoding settings : cabac=1 / ref=9 / deblock=1:-3:-3 / analyse=0x3:0x133 / me=umh / subme=10 / psy=1 / psy_rd=1.10:1.90 / mixed_ref=1 / me_range=32 / chroma_me=1 / trellis=2 / 8x8dct=1 / cqm=0 / deadzone=21,11 / fast_pskip=0 / chroma_qp_offset=-4 / threads=3 / sliced_threads=0 / nr=0 / decimate=1 / interlaced=0 / bluray_compat=0 / constrained_intra=0 / bframes=8 / b_pyramid=2 / b_adapt=2 / b_bias=0 / direct=3 / weightb=1 / open_gop=0 / weightp=2 / keyint=250 / keyint_min=23 / scenecut=40 / intra_refresh=0 / rc=2pass / mbtree=0 / bitrate=4200 / ratetol=1.0 / qcomp=0.70 / qpmin=0 / qpmax=69 / qpstep=4 / cplxblur=20.0 / qblur=0.5 / ip_ratio=1.30 / pb_ratio=1.25 / aq=1:1.00
Language : English
Default : Yes
Forced : No

Audio #1
ID : 2
Format : AC-3
Format/Info : Audio Coding 3
Mode extension : CM (complete main)
Format settings, Endianness : Big
Codec ID : A_AC3
Duration : 27mn 49s
Bit rate mode : Constant
Bit rate : 384 Kbps
Channel(s) : 6 channels
Channel positions : Front: L C R, Side: L R, LFE
Sampling rate : 48.0 KHz
Bit depth : 16 bits
Compression mode : Lossy
Stream size : 76.4 MiB (8%)
Title : Ozz.tv
Language : Russian
Default : Yes
Forced : No

Audio #2
ID : 3
Format : AC-3
Format/Info : Audio Coding 3
Mode extension : CM (complete main)
Format settings, Endianness : Big
Codec ID : A_AC3
Duration : 27mn 49s
Bit rate mode : Constant
Bit rate : 384 Kbps
Channel(s) : 6 channels
Channel positions : Front: L C R, Side: L R, LFE
Sampling rate : 48.0 KHz
Bit depth : 16 bits
Compression mode : Lossy
Stream size : 76.4 MiB (8%)
Language : English
Default : No
Forced : No

Text #1
ID : 4
Format : UTF-8
Codec ID : S_TEXT/UTF8
Codec ID/Info : UTF-8 Plain Text
Title : KingFisher
Language : Russian
Default : No
Forced : No

Text #2
ID : 5
Format : UTF-8
Codec ID : S_TEXT/UTF8
Codec ID/Info : UTF-8 Plain Text
Title : by...www.addic7ed.com
Language : English
Default : No
Forced : No



   Похожие торренты   Торрент   Размер 
В этой теме нет новых непрочитанных сообщений. Большая буква «Р» / Большая Ж / The Big C [S03] (2012) HDTVRip 720р | Sub

0 | 1

7.35 ГБ

В этой теме нет новых непрочитанных сообщений. Большая буква «Р» / Большая Ж / The Big C [S03] (2012) HDTVRip | Sub

5 | 1

2.23 ГБ

В этой теме нет новых непрочитанных сообщений. Большая буква «Р» / Большая Ж / The Big C [S03] (2012) HDTVRip от Ozz

7 | 1

2.52 ГБ

В этой теме нет новых непрочитанных сообщений. Алая буква / The Scarlet Letter (1994) HDTVRip 720p | P

42 | 10

4.89 ГБ

В этой теме нет новых непрочитанных сообщений. Алая буква / The Scarlet Letter (1995) HDTVRip от NovaLan

30 | 10

2.54 ГБ

В этой теме нет новых непрочитанных сообщений. Большая буква «Р» / Большая Ж / The Big C [S01] (2010) HDTVRip от NewStudio

28 | 4

3.81 ГБ

В этой теме нет новых непрочитанных сообщений. Большая буква «Р» / Большая Ж / The Big C [S02] (2011) HDTVRip от NewStudio

0 | 4

900.09 МБ




Вы не можете начинать темы
Вы не можете отвечать на сообщения
Вы не можете редактировать свои сообщения
Вы не можете удалять свои сообщения
Вы не можете добавлять вложения

Перейти:  
Для Мосгорсуда, Роскомнадзора и рекламодателей: mosgorsud-torrent[собачка]yandex.ru
 Вход
ppkBB3cker v.2 © 2008-2014 @ PPK
[ Time : 0.054s | 16 Queries | GZIP : Off ]

Торрент трекер RUTOR.IN, Не можете зайти на rutor.org? Какой новый адрес рутор? Какое зеркало рутор? Не работает rutor.org и зеркала? Тогда наш торрент специально для вас. Rutor.in неофициальное зеркало rutor. В случае если у Вас заблокирован rutor или вдруг Вы не можете на него зайти, то Вы без труда сможете скачать бесплатно и без рекламы последние новинки кино, игр, сериалов и прочего у нас, на Rutor.in. Не нужно использовать прокси, чтобы зайти на рутор, достаточно воспользоваться нашим ресурсом. Все новые фильмы, игры, сериалы, книги и музыка за 2013 и 2014 годы через торрент бесплатно. Скачивайте фильмы в хорошем качестве, игры для пк, xbox, playstation без регистрации. У нас вы найдете новые Зарубежные сериалы и Русские сериалы 2013, 2014, 2015 годов. Оставайтесь с нами, качайте любимые фильмы, игры, сериалы, книги и музыку.