img image001 image001 image001 image001 image001 image001 image001 image001 image001 image001 image001 image001 image001 image001 image001

Planets Sun Sun Sun
Статистика раздачи
Автор: Снежана | Размер: 39.68 ГБ | Добавлен: 25 июл 2013
Раздают: 313    Качают: 203
Скачать торрент
Скачать торрент
Описание торрента

СообщениеДобавлено: 25 июл 2013 

#77
http://filmpro.ru/movies/15209855
Информация о фильме
Название: Великолепный век
Оригинальное название: Muhtesem Yüzyil
Год выхода: 2011
Жанр: драма, мелодрама, военный, биография, история
Режиссер: Дурул Тайлан / Durul Taylan, Ягмур Тайлан / Yagmur Taylan
В ролях: Небахат Чехре /Nebahat Çehre/, Окан Ялабик /Okan Yalabik/, Сельма Эргеч /Selma Ergeç/, Халит Эргенч /Halit Ergenç/, Филиз Ахмет /Filiz Ahmet/

О фильме:
Сюжет основан на реальных событиях, произошедших во времена правления султана Сулеймана I, и расказывает о периоде жизни девушки Роксоланы, взятой в плен турками и названной Хюррем. Позже она стала первой официальной женой Сулеймана, но для этого ей пришлось пройти сложный путь…

Страна: Турция
Продолжительность: ~ 100 минут серия
Перевод: Профессиональный (полное дублирование) [ТК Домашний]

Файл
Кодек: XviD / MP3
Качество: WEBDLRip
Видео: XviD, 704x396 (16:9), 25.000 fps, ~1200 Kbps (0.17 bit/pixel)
Звук: MP3, 44.1 KHz, 2 ch, 128 Kbps

General
Complete name : /media/MuhtesemYuzyil.S02E25-63/Muhtesem Yuzyil.s02e25.avi
Format : AVI
Format/Info : Audio Video Interleave
File size : 987 MiB
Duration : 1h 44mn
Overall bit rate : 1 322 Kbps
Writing application : MEncoder SVN-r30881(20100311-gcc4.3.3)
Writing library : MPlayer

Video
ID : 0
Format : MPEG-4 Visual
Format profile : Advanced Simple@L5
Format settings, BVOP : 2
Format settings, QPel : No
Format settings, GMC : No warppoints
Format settings, Matrix : Default (H.263)
Codec ID : XVID
Codec ID/Hint : XviD
Duration : 1h 44mn
Bit rate : 1 182 Kbps
Width : 704 pixels
Height : 396 pixels
Display aspect ratio : 16:9
Frame rate : 25.000 fps
Color space : YUV
Chroma subsampling : 4:2:0
Bit depth : 8 bits
Scan type : Progressive
Compression mode : Lossy
Bits/(Pixel*Frame) : 0.170
Stream size : 882 MiB (89%)
Writing library : XviD 1.2.1 (UTC 2008-12-04)

Audio
ID : 1
Format : MPEG Audio
Format version : Version 1
Format profile : Layer 3
Mode : Joint stereo
Mode extension : MS Stereo
Codec ID : 55
Codec ID/Hint : MP3
Duration : 1h 44mn
Bit rate mode : Constant
Bit rate : 128 Kbps
Channel(s) : 2 channels
Sampling rate : 44.1 KHz
Compression mode : Lossy
Delay relative to video : 40ms
Stream size : 95.6 MiB (10%)
Alignment : Aligned on interleaves
Interleave, duration : 26 ms (0.65 video frame)
Interleave, preload duration : 522 ms



   Похожие торренты   Торрент   Размер 
В этой теме нет новых непрочитанных сообщений. Великолепный век / Muhtesem Yüzyil [02x25-36] (2011) SATRip | D

61 | 48

16.39 ГБ

В этой теме нет новых непрочитанных сообщений. Великолепный век / Muhtesem Yüzyil [04x01-22] (2013) WEBDLRip | D

86 | 208

18.05 ГБ

В этой теме нет новых непрочитанных сообщений. Великолепный век / Muhtesem Yüzyil [04x01-13] (2013) WEBDLRip | D

56 | 311

10.37 ГБ

В этой теме нет новых непрочитанных сообщений. Великолепный век / Muhtesem Yüzyil [04x01-10] (2013) WEBDLRip | D

4 | 2

7.78 ГБ

В этой теме нет новых непрочитанных сообщений. Великолепный век / Muhtesem Yüzyil [04x01-12] (2013) WEBDLRip | D

55 | 115

9.54 ГБ

В этой теме нет новых непрочитанных сообщений. Великолепный век / Muhtesem Yüzyil [04x01-20] (2013) WEBDLRip | D

1 | 5

16.38 ГБ

В этой теме нет новых непрочитанных сообщений. Великолепный век / Muhtesem Yüzyil [04x01-21] (2013) WEBDLRip | D

84 | 119

17.24 ГБ




Вы не можете начинать темы
Вы не можете отвечать на сообщения
Вы не можете редактировать свои сообщения
Вы не можете удалять свои сообщения
Вы не можете добавлять вложения

Перейти:  
Для Мосгорсуда, Роскомнадзора и рекламодателей: mosgorsud-torrent[собачка]yandex.ru
 Вход
ppkBB3cker v.2 © 2008-2014 @ PPK
[ Time : 0.098s | 15 Queries | GZIP : Off ]

Торрент трекер RUTOR.IN, Не можете зайти на rutor.org? Какой новый адрес рутор? Какое зеркало рутор? Не работает rutor.org и зеркала? Тогда наш торрент специально для вас. Rutor.in неофициальное зеркало rutor. В случае если у Вас заблокирован rutor или вдруг Вы не можете на него зайти, то Вы без труда сможете скачать бесплатно и без рекламы последние новинки кино, игр, сериалов и прочего у нас, на Rutor.in. Не нужно использовать прокси, чтобы зайти на рутор, достаточно воспользоваться нашим ресурсом. Все новые фильмы, игры, сериалы, книги и музыка за 2013 и 2014 годы через торрент бесплатно. Скачивайте фильмы в хорошем качестве, игры для пк, xbox, playstation без регистрации. У нас вы найдете новые Зарубежные сериалы и Русские сериалы 2013, 2014, 2015 годов. Оставайтесь с нами, качайте любимые фильмы, игры, сериалы, книги и музыку.