img image001 image001 image001 image001 image001 image001 image001 image001 image001 image001 image001 image001 image001 image001 image001

Planets Sun Sun Sun
Статистика раздачи
Автор: Снежана | Размер: 19.58 ГБ | Добавлен: 25 июл 2013
Раздают: 47    Качают: 18
Скачать торрент
Скачать торрент
Описание торрента

СообщениеДобавлено: 25 июл 2013 



Информация о фильме
Название: Друзья
Оригинальное название: Friends
Год выхода: 2001-2002
Жанр: Sitcom
Режиссер: David Crane, Marta Kauffman
В ролях: Jennifer Aniston, Courteney Cox Arquette, Lisa Kudrow, Matt LeBlanc, Matthew Perry, David Schwimmer

О фильме:
Главные герои — шестеро друзей — Рейчел, Моника, Фиби, Джоуи, Чендлер и Росс. Три девушки и три парня, которые дружат, живут по соседству, вместе убивают время и противостоят жестокой реальности, делятся своими секретами и иногда очень сильно влюбляются.
Сериал признан одним из лучших комедийных сериалов в истории американского телевидения и стал одним из наиболее заметных проектов 1990-х годов. Сама постановка и творческая группа получили множество наград, в том числе шесть премий «Эмми» и премию «Золотой глобус».

Страна: США
Студия: Канал NBC
Продолжительность: 24 x ∼22мин
Перевод: Русский - Профессиональный (многоголосый, закадровый)

Файл
Кодек: x.264
Контейнер: m4v
Качество: BDRip-AVC
Видео: 1280x720 (16:9), ∼5000kbps, 23,976fps
Звук:
AAC, 2 channels, 48.0 KHz, 128kbps VBR |Русский, многоголосый, закадровый|
AAC, 2 channels, 48.0 KHz, 160kbps VBR |Английский, оригинал|
Субтитры: Английские
Метатэги: Прописаны

Раздача будет полезна пользователям iOS и OS X платформ (из-за родных кодеков и контейнера).
При просмотре на Windows рекомендую пользоваться iTunes или VLC media player.



General
Format : MPEG-4
Codec ID : M4V
File size : 834 MiB
Duration : 21mn 57s
Overall bit rate mode : Variable
Overall bit rate : 5 308 Kbps
Movie name : The One With Monica's Boots
Part/Position : 8
Track name/Position : 10
Track name/Total : 24
Performer : Friends
Genre : Sitcom
Recorded date : 2001-12-06
Encoded date : UTC 2013-01-03 07:24:11
Tagged date : UTC 2013-01-09 16:06:17
Cover : Yes
tvsh : Friends
tven : 227409
tvsn : 8
tves : 10
sosn : Friends
desc : Chandler is peeved when Monica splurges on an expensive pair of boots. Phoebe learns Ross' and Sting's children attend the same school, she angles to meet the celebrity and get concert tickets. When Joey's sister Dina tells him she is pregnant, he freaks out and goes to find the father to marry them. Rachel tries to calm him down.
ldes : Chandler is peeved when Monica splurges on an expensive pair of boots. Phoebe learns Ross' and Sting's children attend the same school, she angles to meet the celebrity and get concert tickets. When Joey's sister Dina tells him she is pregnant, he freaks out and goes to find the father to marry them. Rachel tries to calm him down.
hdvd : 1
stik : 10
rtng : 0

Video #1
ID : 1
Format : AVC
Format/Info : Advanced Video Codec
Format profile : High@L4.1
Format settings, CABAC : Yes
Format settings, ReFrames : 5 frames
Codec ID : avc1
Codec ID/Info : Advanced Video Coding
Duration : 21mn 57s
Bit rate : 5 035 Kbps
Maximum bit rate : 11.1 Mbps
Width : 1 280 pixels
Height : 720 pixels
Display aspect ratio : 16:9
Frame rate mode : Constant
Frame rate : 23.976 fps
Color space : YUV
Chroma subsampling : 4:2:0
Bit depth : 8 bits
Scan type : Progressive
Bits/(Pixel*Frame) : 0.228
Stream size : 791 MiB (95%)
Writing library : x264 core 128 r2216 198a7ea
Encoding settings : cabac=1 / ref=5 / deblock=1:0:0 / analyse=0x3:0x113 / me=umh / subme=8 / psy=1 / psy_rd=1.00:0.00 / mixed_ref=1 / me_range=16 / chroma_me=1 / trellis=1 / 8x8dct=1 / cqm=0 / deadzone=21,11 / fast_pskip=1 / chroma_qp_offset=-2 / threads=12 / lookahead_threads=2 / sliced_threads=0 / nr=0 / decimate=1 / interlaced=0 / bluray_compat=0 / constrained_intra=0 / bframes=3 / b_pyramid=2 / b_adapt=2 / b_bias=0 / direct=3 / weightb=1 / open_gop=0 / weightp=2 / keyint=240 / keyint_min=24 / scenecut=40 / intra_refresh=0 / rc_lookahead=50 / rc=2pass / mbtree=1 / bitrate=5035 / ratetol=1.0 / qcomp=0.60 / qpmin=0 / qpmax=69 / qpstep=4 / cplxblur=20.0 / qblur=0.5 / ip_ratio=1.40 / aq=1:1.00
Language : English
Encoded date : UTC 2013-01-03 07:24:11
Tagged date : UTC 2013-01-03 07:25:22

Video #2
ID : 6
Format : JPEG
Codec ID : jpeg
Duration : 21mn 57s
Bit rate mode : Variable
Bit rate : 1 475 bps
Width : 640 pixels
Height : 360 pixels
Display aspect ratio : 16:9
Frame rate mode : Variable
Frame rate : 0.003 fps
Minimum frame rate : 0.002 fps
Maximum frame rate : 0.026 fps
Color space : YUV
Chroma subsampling : 4:2:0
Bit depth : 8 bits
Compression mode : Lossy
Bits/(Pixel*Frame) : 2.134
Stream size : 240 KiB (0%)
Language : English
Encoded date : UTC 2013-01-08 19:08:23
Tagged date : UTC 2013-01-08 19:08:23

Audio #1
ID : 2
Format : AAC
Format/Info : Advanced Audio Codec
Format profile : LC
Codec ID : 40
Duration : 21mn 57s
Bit rate mode : Variable
Bit rate : 104 Kbps
Maximum bit rate : 214 Kbps
Channel(s) : 2 channels
Channel positions : Front: L R
Sampling rate : 48.0 KHz
Compression mode : Lossy
Stream size : 16.3 MiB (2%)
Language : Russian
Encoded date : UTC 2013-01-03 07:25:16
Tagged date : UTC 2013-01-03 07:25:22

Audio #2
ID : 3
Format : AAC
Format/Info : Advanced Audio Codec
Format profile : LC
Codec ID : 40
Duration : 21mn 57s
Bit rate mode : Variable
Bit rate : 159 Kbps
Maximum bit rate : 229 Kbps
Channel(s) : 2 channels
Channel positions : Front: L R
Sampling rate : 48.0 KHz
Compression mode : Lossy
Stream size : 25.0 MiB (3%)
Language : English
Encoded date : UTC 2013-01-03 07:25:19
Tagged date : UTC 2013-01-03 07:25:22

Text #1
ID : 4
Format : Timed text
Muxing mode : sbtl
Codec ID : tx3g
Duration : 21mn 53s
Bit rate mode : Variable
Bit rate : 92 bps
Stream size : 14.7 KiB (0%)
Language : English
Encoded date : UTC 2013-01-03 07:25:21
Tagged date : UTC 2013-01-03 07:25:22

Text #2
ID : 5
Format : Apple text
Codec ID : text
Duration : 21mn 57s
Bit rate mode : Constant
Bit rate : 1 bps
Stream size : 104 Bytes (0%)
Language : English
Encoded date : UTC 2013-01-08 19:08:20
Tagged date : UTC 2013-01-08 19:08:20

Menu
00:00:00.000 : 00:00:00.000
00:01:44.563 : 00:01:44.563
00:10:40.056 : 00:10:40.056
00:21:19.320 : 00:21:19.320



   Похожие торренты   Торрент   Размер 
В этой теме нет новых непрочитанных сообщений. Друзья / Friends [S08] (2001-2002) BDRip-AVC от HQCLUB

119 | 103

10.22 ГБ

В этой теме нет новых непрочитанных сообщений. Друзья / Friends [S08] (2001-2002) BDRip-AVC | iPad

6 | 3

12.71 ГБ

В этой теме нет новых непрочитанных сообщений. Друзья / Friends [S07] (2000-2001) BDRip 720p

62 | 23

19.66 ГБ

В этой теме нет новых непрочитанных сообщений. Друзья / Friends [S09] (2002-2003) BDRip-AVC 720p | P

42 | 15

20.51 ГБ

В этой теме нет новых непрочитанных сообщений. Друзья / Friends [S07] (2000-2001) BDRip-AVC | iPad

6 | 17

12.7 ГБ

В этой теме нет новых непрочитанных сообщений. Друзья / Friends [S07] (2000-2001) BDRip-AVC от HQCLUB

170 | 95

10.22 ГБ

В этой теме нет новых непрочитанных сообщений. Друзья / Friends [S09] (2002-2003) BDRip-AVC | iPad

9 | 11

13.74 ГБ




Вы не можете начинать темы
Вы не можете отвечать на сообщения
Вы не можете редактировать свои сообщения
Вы не можете удалять свои сообщения
Вы не можете добавлять вложения

Перейти:  
Для Мосгорсуда, Роскомнадзора и рекламодателей: mosgorsud-torrent[собачка]yandex.ru
 Вход
ppkBB3cker v.2 © 2008-2014 @ PPK
[ Time : 0.025s | 14 Queries | GZIP : Off ]

Торрент трекер RUTOR.IN, Не можете зайти на rutor.org? Какой новый адрес рутор? Какое зеркало рутор? Не работает rutor.org и зеркала? Тогда наш торрент специально для вас. Rutor.in неофициальное зеркало rutor. В случае если у Вас заблокирован rutor или вдруг Вы не можете на него зайти, то Вы без труда сможете скачать бесплатно и без рекламы последние новинки кино, игр, сериалов и прочего у нас, на Rutor.in. Не нужно использовать прокси, чтобы зайти на рутор, достаточно воспользоваться нашим ресурсом. Все новые фильмы, игры, сериалы, книги и музыка за 2013 и 2014 годы через торрент бесплатно. Скачивайте фильмы в хорошем качестве, игры для пк, xbox, playstation без регистрации. У нас вы найдете новые Зарубежные сериалы и Русские сериалы 2013, 2014, 2015 годов. Оставайтесь с нами, качайте любимые фильмы, игры, сериалы, книги и музыку.