img image001 image001 image001 image001 image001 image001 image001 image001 image001 image001 image001 image001 image001 image001 image001

Planets Sun Sun Sun
Статистика раздачи
Автор: Снежана | Размер: 2.14 ГБ | Добавлен: 25 июл 2013
Раздают: 3    Качают: 1
Скачать торрент
Скачать торрент
Описание торрента

СообщениеДобавлено: 25 июл 2013 

#77

Название: Записки юного врача
Оригинальное название: A Young Doctor's Notebook
Год выпуска: 2012
Страна: Великобритания
Жанр: Драма, комедия
Продолжительность: 04 х ~ 00:25:00
Перевод: Профессиональный (многоголосый закадровый) - NewStudio
Субтитры: нет
Режиссер: Алекс Хардкэсл

В ролях: Дэниэл Рэдклифф, Адам Годли, Джон Хэмм, Рози Кавальеро, Вики Пеппердин

Описание: Экранизация цикла рассказов Михаила Булгакова "Записки юного врача".
В неспокойное революционное время юный врач Бомгард Владимир прибыл в маленькую деревушку, где принялся лечить местных жителей. Главному герою сериала приходится весьма нелегко, ведь он вынужден сталкиваться с трудностями своей профессии, а также постоянными суевериями своих пациентов.



Перевод: Илья Белкин
Постер: Vortex
Работа со звуком: baggio
Рип видео: baggio

Качество: HDTV 720p
Формат: MКV
Видео кодек: MPEG-4
Аудио кодек: АС3
Видео: MPEG-4 AVC, ~ 3174 Кбит/с, 1280x720
Аудио rus: АС3, 2 ch, 192 Кбит/с
Аудио eng: АС3, 6 ch, 384 Кбит/с

Формат : Matroska
Размер файла : 636 Мбайт
Продолжительность : 23 м.
Общий поток : 3826 Кбит/сек
Дата кодирования : UTC 2012-12-29 10:34:45
Программа кодирования : mkvmerge v2.9.9 ('Tutu') built on Nov 25 2009 21:13:32
Библиотека кодирования : libebml v0.7.9 + libmatroska v0.8.1

Видео
Идентификатор : 1
Формат : AVC
Формат/Информация : Advanced Video Codec
Профиль формата : High@L4.1
Параметр CABAC формата : Да
Параметр ReFrames формата : 9 кадров
Идентификатор кодека : V_MPEG4/ISO/AVC
Продолжительность : 23 м.
Битрейт : 3174 Кбит/сек
Ширина : 1280 пикс.
Высота : 720 пикс.
Соотношение сторон : 16:9
Частота кадров : 25,000 кадр/сек
Цветовое пространство : YUV
Подвыборка цветности : 4:2:0
Битовая глубина : 8 бит
Тип развёртки : Прогрессивная
Бит/(Пиксели*Кадры) : 0.138
Размер потока : 528 Мбайт (83%)
Библиотека кодирования : x264 core 129 r2230kMod 1cffe9f
Настройки программы : cabac=1 / ref=9 / deblock=1:-3:-3 / analyse=0x3:0x133 / me=umh / subme=11 / psy=1 / fade_compensate=0.00 / psy_rd=1.10:0.00 / mixed_ref=1 / me_range=32 / chroma_me=1 / trellis=2 / 8x8dct=1 / cqm=0 / deadzone=21,11 / fast_pskip=0 / chroma_qp_offset=-2 / threads=6 / lookahead_threads=1 / sliced_threads=0 / nr=0 / decimate=0 / interlaced=0 / bluray_compat=0 / constrained_intra=0 / bframes=5 / b_pyramid=2 / b_adapt=2 / b_bias=0 / direct=3 / weightb=1 / open_gop=0 / weightp=2 / keyint=250 / keyint_min=25 / scenecut=40 / intra_refresh=0 / rc_lookahead=40 / rc=crf / mbtree=1 / crf=19.0000 / qcomp=0.80 / qpmin=0 / qpmax=69 / qpstep=4 / ip_ratio=1.30 / aq=1:1.00
Язык : English

Аудио #1
Идентификатор : 2
Формат : AC-3
Формат/Информация : Audio Coding 3
Расширение режима : CM (complete main)
Идентификатор кодека : A_AC3
Продолжительность : 23 м.
Вид битрейта : Постоянный
Битрейт : 192 Кбит/сек
Каналы : 2 канала
Расположение каналов : Front: L R
Частота : 48,0 КГц
Битовая глубина : 16 бит
Метод сжатия : С потерями
Размер потока : 31,9 Мбайт (5%)

Аудио #2
Идентификатор : 3
Формат : AC-3
Формат/Информация : Audio Coding 3
Расширение режима : CM (complete main)
Идентификатор кодека : A_AC3
Продолжительность : 23 м.
Вид битрейта : Постоянный
Битрейт : 384 Кбит/сек
Каналы : 6 каналов
Расположение каналов : Front: L C R, Side: L R, LFE
Частота : 48,0 КГц
Битовая глубина : 16 бит
Метод сжатия : С потерями
Задержка видео : 32 мс.
Размер потока : 63,8 Мбайт (10%)
Язык : English


Релиз от:



   Похожие торренты   Торрент   Размер 
В этой теме нет новых непрочитанных сообщений. Записки юного врача / A Young Doctor's Notebook [S01] (2012) HDTVRip | NewStudio

0 | 1

1.17 ГБ

В этой теме нет новых непрочитанных сообщений. Записки юного врача / A Young Doctor's Notebook [S01] (2012) HDTV 1080i от MediaClub

2 | 3

7.96 ГБ

В этой теме нет новых непрочитанных сообщений. Записки юного врача / A Young Doctor's Notebook [S01] (2012) HDTV 1080i от Filmrus - BenderBEST

3 | 1

7.9 ГБ

В этой теме нет новых непрочитанных сообщений. Записки юного врача / A Young Doctor's Notebook [S01] (2012) HDTVRip 720p от MediaClub

21 | 4

3.79 ГБ

В этой теме нет новых непрочитанных сообщений. Записки юного врача / A Young Doctor's Notebook [S01] (2012) HDTVRip 720p | LostFilm

19 | 6

3.08 ГБ

В этой теме нет новых непрочитанных сообщений. Записки юного врача / A Young Doctor's Notebook [S01] (2012) HDTVRip 720p от Filmrus - BenderBEST

5 | 3

3.72 ГБ

В этой теме нет новых непрочитанных сообщений. Записки юного врача / A Young Doctor's Notebook [S01] (2012) HDTVRip | LostFilm

70 | 3

929.08 МБ




Вы не можете начинать темы
Вы не можете отвечать на сообщения
Вы не можете редактировать свои сообщения
Вы не можете удалять свои сообщения
Вы не можете добавлять вложения

Перейти:  
Для Мосгорсуда, Роскомнадзора и рекламодателей: mosgorsud-torrent[собачка]yandex.ru
 Вход
ppkBB3cker v.2 © 2008-2014 @ PPK
[ Time : 0.062s | 18 Queries | GZIP : Off ]

Торрент трекер RUTOR.IN, Не можете зайти на rutor.org? Какой новый адрес рутор? Какое зеркало рутор? Не работает rutor.org и зеркала? Тогда наш торрент специально для вас. Rutor.in неофициальное зеркало rutor. В случае если у Вас заблокирован rutor или вдруг Вы не можете на него зайти, то Вы без труда сможете скачать бесплатно и без рекламы последние новинки кино, игр, сериалов и прочего у нас, на Rutor.in. Не нужно использовать прокси, чтобы зайти на рутор, достаточно воспользоваться нашим ресурсом. Все новые фильмы, игры, сериалы, книги и музыка за 2013 и 2014 годы через торрент бесплатно. Скачивайте фильмы в хорошем качестве, игры для пк, xbox, playstation без регистрации. У нас вы найдете новые Зарубежные сериалы и Русские сериалы 2013, 2014, 2015 годов. Оставайтесь с нами, качайте любимые фильмы, игры, сериалы, книги и музыку.
cron