img image001 image001 image001 image001 image001 image001 image001 image001 image001 image001 image001 image001 image001 image001 image001

Planets Sun Sun Sun
Статистика раздачи
Автор: Снежана | Размер: 15.86 ГБ | Добавлен: 25 июл 2013
Раздают: 37    Качают: 12
Скачать торрент
Скачать торрент
Описание торрента

СообщениеДобавлено: 25 июл 2013 



Информация о фильме
Название: Друзья
Оригинальное название: Friends
Год выхода: 2003-2004
Жанр: Sitcom
Режиссер: David Crane, Marta Kauffman
В ролях: Jennifer Aniston, Courteney Cox Arquette, Lisa Kudrow, Matt LeBlanc, Matthew Perry, David Schwimmer

О фильме:
Главные герои — шестеро друзей — Рейчел, Моника, Фиби, Джоуи, Чендлер и Росс. Три девушки и три парня, которые дружат, живут по соседству, вместе убивают время и противостоят жестокой реальности, делятся своими секретами и иногда очень сильно влюбляются.
Сериал признан одним из лучших комедийных сериалов в истории американского телевидения и стал одним из наиболее заметных проектов 1990-х годов. Сама постановка и творческая группа получили множество наград, в том числе шесть премий «Эмми» и премию «Золотой глобус».

Страна: США
Студия: Канал NBC
Продолжительность: 18 x ∼22мин
Перевод: Русский - Профессиональный (многоголосый, закадровый)

Файл
Кодек: x.264
Контейнер: m4v
Качество: BDRip-AVC
Видео: 1280x720 (16:9), ∼5000kbps, 23,976fps
Звук:
AAC, 2 channels, 48.0 KHz, 128kbps VBR |Русский, многоголосый, закадровый|
AAC, 2 channels, 48.0 KHz, 160kbps VBR |Английский, оригинал|
Субтитры: Английские
Метатэги: Прописаны

Раздача будет полезна пользователям iOS и OS X платформ (из-за родных кодеков и контейнера).
При просмотре на Windows рекомендую пользоваться iTunes или VLC media player.



General
Format : MPEG-4
Codec ID : M4V
File size : 1.01 GiB
Duration : 29mn 19s
Overall bit rate mode : Variable
Overall bit rate : 4 947 Kbps
Movie name : The One After Joey And Rachel Kiss
Part/Position : 10
Track name/Position : 1
Track name/Total : 17
Performer : Friends
Genre : Sitcom
Recorded date : 2003-09-25
Encoded date : UTC 2013-01-11 11:37:10
Tagged date : UTC 2013-01-11 18:39:40
Cover : Yes
tvsh : Friends
tven : 176251
tvsn : 10
tves : 1
sosn : Friends
desc : Monica, Chandler and Phoebe discover that they can eavesdrop on Ross & Charlie and Joey & Rachel through the walls of the hotel. Both new couples decide to wait before proceeding with their relationships, until the men can talk to each other. Ross tells Joey on the plane ride back to New York, but Joey can't quite yet. Later, Ross walks in on Joey and Rachel kissing. Meanwhile, Monica combats her poofy hair by getting corn rows put in, and Phoebe discovers that Mike has a girlfriend.
ldes : Monica, Chandler and Phoebe discover that they can eavesdrop on Ross & Charlie and Joey & Rachel through the walls of the hotel. Both new couples decide to wait before proceeding with their relationships, until the men can talk to each other. Ross tells Joey on the plane ride back to New York, but Joey can't quite yet. Later, Ross walks in on Joey and Rachel kissing. Meanwhile, Monica combats her poofy hair by getting corn rows put in, and Phoebe discovers that Mike has a girlfriend.
hdvd : 1
stik : 10
rtng : 0

Video #1
ID : 1
Format : AVC
Format/Info : Advanced Video Codec
Format profile : High@L4.1
Format settings, CABAC : Yes
Format settings, ReFrames : 5 frames
Codec ID : avc1
Codec ID/Info : Advanced Video Coding
Duration : 29mn 18s
Bit rate : 4 677 Kbps
Maximum bit rate : 12.1 Mbps
Width : 1 280 pixels
Height : 720 pixels
Display aspect ratio : 16:9
Frame rate mode : Constant
Frame rate : 23.976 fps
Color space : YUV
Chroma subsampling : 4:2:0
Bit depth : 8 bits
Scan type : Progressive
Bits/(Pixel*Frame) : 0.212
Stream size : 980 MiB (94%)
Writing library : x264 core 128 r2216 198a7ea
Encoding settings : cabac=1 / ref=5 / deblock=1:0:0 / analyse=0x3:0x113 / me=umh / subme=8 / psy=1 / psy_rd=1.00:0.00 / mixed_ref=1 / me_range=16 / chroma_me=1 / trellis=1 / 8x8dct=1 / cqm=0 / deadzone=21,11 / fast_pskip=1 / chroma_qp_offset=-2 / threads=12 / lookahead_threads=2 / sliced_threads=0 / nr=0 / decimate=1 / interlaced=0 / bluray_compat=0 / constrained_intra=0 / bframes=3 / b_pyramid=2 / b_adapt=2 / b_bias=0 / direct=3 / weightb=1 / open_gop=0 / weightp=2 / keyint=240 / keyint_min=24 / scenecut=40 / intra_refresh=0 / rc_lookahead=50 / rc=2pass / mbtree=1 / bitrate=4677 / ratetol=1.0 / qcomp=0.60 / qpmin=0 / qpmax=69 / qpstep=4 / cplxblur=20.0 / qblur=0.5 / ip_ratio=1.40 / aq=1:1.00
Language : English
Encoded date : UTC 2013-01-11 11:37:10
Tagged date : UTC 2013-01-11 11:42:04

Video #2
ID : 6
Format : JPEG
Codec ID : jpeg
Duration : 29mn 18s
Bit rate mode : Variable
Bit rate : 1 036 bps
Width : 640 pixels
Height : 360 pixels
Display aspect ratio : 16:9
Frame rate mode : Variable
Frame rate : 0.003 fps
Minimum frame rate : 0.002 fps
Maximum frame rate : 0.022 fps
Color space : YUV
Chroma subsampling : 4:2:0
Bit depth : 8 bits
Compression mode : Lossy
Bits/(Pixel*Frame) : 1.499
Stream size : 211 KiB (0%)
Language : English
Encoded date : UTC 2013-01-11 18:37:47
Tagged date : UTC 2013-01-11 18:37:47

Audio #1
ID : 2
Format : AAC
Format/Info : Advanced Audio Codec
Format profile : LC
Codec ID : 40
Duration : 29mn 19s
Bit rate mode : Variable
Bit rate : 101 Kbps
Maximum bit rate : 224 Kbps
Channel(s) : 2 channels
Channel positions : Front: L R
Sampling rate : 48.0 KHz
Compression mode : Lossy
Stream size : 21.1 MiB (2%)
Language : Russian
Encoded date : UTC 2013-01-11 11:41:34
Tagged date : UTC 2013-01-11 11:42:04

Audio #2
ID : 3
Format : AAC
Format/Info : Advanced Audio Codec
Format profile : LC
Codec ID : 40
Duration : 29mn 19s
Bit rate mode : Variable
Bit rate : 162 Kbps
Maximum bit rate : 231 Kbps
Channel(s) : 2 channels
Channel positions : Front: L R
Sampling rate : 48.0 KHz
Compression mode : Lossy
Stream size : 34.1 MiB (3%)
Language : English
Encoded date : UTC 2013-01-11 11:41:43
Tagged date : UTC 2013-01-11 11:42:04

Text #1
ID : 4
Format : Timed text
Muxing mode : sbtl
Codec ID : tx3g
Duration : 29mn 16s
Bit rate mode : Variable
Bit rate : 85 bps
Stream size : 18.3 KiB (0%)
Language : English
Encoded date : UTC 2013-01-11 11:42:04
Tagged date : UTC 2013-01-11 11:42:04

Text #2
ID : 5
Format : Apple text
Codec ID : text
Duration : 29mn 18s
Bit rate mode : Constant
Bit rate : 1 bps
Stream size : 130 Bytes (0%)
Language : English
Encoded date : UTC 2013-01-11 18:37:44
Tagged date : UTC 2013-01-11 18:37:44

Menu
00:00:00.000 : 00:00:00.000
00:02:54.883 : 00:02:54.883
00:11:19.137 : 00:11:19.137
00:18:53.049 : 00:18:53.049
00:28:34.212 : 00:28:34.212



   Похожие торренты   Торрент   Размер 
В этой теме нет новых непрочитанных сообщений. Друзья / Friends [S10] (2003-2004) BDRip-AVC от HQCLUB

153 | 36

8.63 ГБ

В этой теме нет новых непрочитанных сообщений. Друзья / Friends [S10] (2003-2004) BDRip-AVC | iPad

30 | 12

9.65 ГБ

В этой теме нет новых непрочитанных сообщений. Друзья / Friends [S09] (2002-2003) BDRip-AVC 720p | P

42 | 15

20.51 ГБ

В этой теме нет новых непрочитанных сообщений. Друзья / Friends [s01-10] (1994-2004) BDRip 720p HEVC

46 | 40

22.15 ГБ

В этой теме нет новых непрочитанных сообщений. Друзья / Friends [S01-10] (1994-2004) BDRip-AVC | P

62 | 96

67.58 ГБ

В этой теме нет новых непрочитанных сообщений. Друзья / Friends [S09] (2002-2003) BDRip-AVC | iPad

9 | 11

13.74 ГБ

В этой теме нет новых непрочитанных сообщений. Друзья / Friends [S01-10] (1994-2004) BDRip 1080p | PTP-CTC, 1+1

31 | 114

413.67 ГБ




Вы не можете начинать темы
Вы не можете отвечать на сообщения
Вы не можете редактировать свои сообщения
Вы не можете удалять свои сообщения
Вы не можете добавлять вложения

Перейти:  
Для Мосгорсуда, Роскомнадзора и рекламодателей: mosgorsud-torrent[собачка]yandex.ru
 Вход
ppkBB3cker v.2 © 2008-2014 @ PPK
[ Time : 0.036s | 15 Queries | GZIP : Off ]

cron