img image001 image001 image001 image001 image001 image001 image001 image001 image001 image001 image001 image001 image001 image001 image001 image001

Planets Sun Sun Sun
Статистика раздачи
Автор: Снежана | Размер: 8.2 ГБ | Добавлен: 25 июл 2013
Раздают: 307    Качают: 27
Скачать торрент
Скачать торрент
Описание торрента

СообщениеДобавлено: 25 июл 2013 

#77

Информация о фильме
Оригинальное название: Метод Фрейда
Год выпуска: 2012
Жанр: Детектив
Выпущено: Россия, Стар-медиа, Первый канал
Режиссер: Михаил Вайнберг
В ролях: Иван Охлобыстин, Наталия Антонова, Елена Николаева, Павел Прилучный, Артур Ваха, Алексей Гришин, Александр Кузнецов, Наталья Рычкова, Алла Подчуфарова, Маргарита Быстрякова, Александр Воробьев, Вячеслав Яковлев, Виктор Маркин, Михаил Люлинецкий, Иван Руденко

О фильме: В следственный отдел прокуратуры введен специальный консультант Роман Фрейдин, психолог и профессиональный игрок в покер. В молодости Фрейдин объездил всю Россию и Европу, общался с людьми самых разных профессий. В расследовании преступлений он опирается на интуицию, использует научные методики, воссоздает биокинетические картины событий, психофизические портреты преступников и прогнозирует действия бандитов. Но базовым моментом для Романа является психология.



Файл
Качество: HDTVRip (AVC)
Видео: MPEG-4 AVC, ~ 1668 Кбит/с, 1024x572
Аудио: AC3, 2 ch, 192 Кбит/с
Размер: 8.2 ГБ
Продолжительность: 12 x ~ 00:51:00
Язык: Русский

Семпл
Полное имя : Метод Фрейда.03 серия.2013.HDTVRip-AVC.Metla111.mkv
Формат : Matroska
Версия формата : Version 2
Размер файла : 700 Мбайт
Продолжительность : 52 м.
Общий поток : 1861 Кбит/сек
Дата кодирования : UTC 2013-01-14 13:15:14
Программа кодирования : mkvmerge v5.8.0 ('No Sleep / Pillow') built on Sep 2 2012 15:37:04
Библиотека кодирования : libebml v1.2.3 + libmatroska v1.3.0

Видео
Идентификатор : 1
Формат : AVC
Формат/Информация : Advanced Video Codec
Профиль формата : High@L4.0
Параметр CABAC формата : Да
Параметр ReFrames формата : 12 кадров
Идентификатор кодека : V_MPEG4/ISO/AVC
Продолжительность : 52 м.
Битрейт : 1668 Кбит/сек
Ширина : 1024 пикселя
Высота : 572 пикселя
Соотношение сторон : 16:9
Режим частоты кадров : Постоянный
Частота кадров : 25,000 кадров/сек
Цветовое пространство : YUV
Субдискретизация насыщенности : 4:2:0
Битовая глубина : 8 бит
Тип развёртки : Прогрессивная
Бит/(Пиксели*Кадры) : 0.114
Размер потока : 614 Мбайт (88%)
Библиотека кодирования : x264 core 125 r2208 d9d2288
Настройки программы : cabac=1 / ref=12 / deblock=1:-2:-2 / analyse=0x3:0x113 / me=umh / subme=9 / psy=1 / psy_rd=1.00:0.20 / mixed_ref=1 / me_range=32 / chroma_me=1 / trellis=2 / 8x8dct=1 / cqm=0 / deadzone=21,11 / fast_pskip=1 / chroma_qp_offset=-3 / threads=6 / lookahead_threads=1 / sliced_threads=0 / nr=0 / decimate=0 / interlaced=0 / bluray_compat=0 / constrained_intra=0 / bframes=10 / b_pyramid=2 / b_adapt=2 / b_bias=0 / direct=3 / weightb=1 / open_gop=0 / weightp=2 / keyint=250 / keyint_min=25 / scenecut=40 / intra_refresh=0 / rc=2pass / mbtree=0 / bitrate=1668 / ratetol=1.0 / qcomp=0.70 / qpmin=0 / qpmax=69 / qpstep=4 / cplxblur=20.0 / qblur=0.5 / ip_ratio=1.40 / pb_ratio=1.30 / aq=2:1.00
Default : Да
Forced : Нет
Основные цвета : BT.709
Характеристики трансфера : BT.709
Коэффициенты матрицы : BT.709

Аудио
Идентификатор : 2
Формат : AC-3
Формат/Информация : Audio Coding 3
Расширение режима : CM (complete main)
Параметр Endianness формата : Big
Идентификатор кодека : A_AC3
Продолжительность : 52 м.
Вид битрейта : Постоянный
Битрейт : 192 Кбит/сек
Каналы : 2 канала
Расположение каналов : Front: L R
Частота : 48,0 КГц
Битовая глубина : 16 бит
Метод сжатия : С потерями
Размер потока : 72,2 Мбайт (10%)
Default : Да
Forced : Нет

Скриншоты:




   Похожие торренты   Торрент   Размер 
В этой теме нет новых непрочитанных сообщений. Метод Фрейда [S02] (2015) WEB-DLRip от ExKinoRay

2629 | 565

8.19 ГБ

В этой теме нет новых непрочитанных сообщений. Метод Фрейда [S02] (2015) WEB-DL 720p от MediaClub

795 | 200

12.61 ГБ

В этой теме нет новых непрочитанных сообщений. Метод Фрейда [S02] (2015) WEB-DL 1080p от ExKinoRay

682 | 137

21.02 ГБ

В этой теме нет новых непрочитанных сообщений. Метод Фрейда [02x01 из 12] (2015) WEB-DLRip-AVC от Files-x

35 | 6

765.84 МБ

В этой теме нет новых непрочитанных сообщений. Метод Фрейда (02x01-04 из 12] (2015) SATRip от Files-x

6041 | 890

7.04 ГБ

В этой теме нет новых непрочитанных сообщений. Метод Фрейда [02x01 из 12] (2015) WEB-DLRip-AVC от Files-x

69 | 19

5.39 ГБ

В этой теме нет новых непрочитанных сообщений. Геше Эрдем Инкеев - Метод и мудрость (беседы с ламой) (2013-2014) HDTVRip

11 | 6

4.05 ГБ




Вы не можете начинать темы
Вы не можете отвечать на сообщения
Вы не можете редактировать свои сообщения
Вы не можете удалять свои сообщения
Вы не можете добавлять вложения

Перейти:  
 Вход
ppkBB3cker v.2 © 2008-2014 @ PPK
[ Time : 0.031s | 18 Queries | GZIP : Off ]

cron