img image001 image001 image001 image001 image001 image001 image001 image001 image001 image001 image001 image001 image001 image001 image001

Planets Sun Sun Sun
Статистика раздачи
Автор: Снежана | Размер: 1.33 ГБ | Добавлен: 25 июл 2013
Раздают: 11    Качают: 1
Скачать торрент
Скачать торрент
Описание торрента

СообщениеДобавлено: 25 июл 2013 

#77

Название: Городок
Оригинальное название: The Town
Год выпуска: 2012
Страна: Великобритания
Жанр: драма, детектив
Продолжительность: 03 х ~ 00:45:00
Перевод: Любительский (многоголосый, закадровый) - ViruseProject
Субтитры: Отсутствуют
Режиссер: Колин Тига / Colin Teague
В ролях: Эндрю Скотт, Джулия МакКензи, Шарлотта Райли, авигай Тлалим, Келли Адамс, Эйслинг Беа, Сэм Тротон, Мартин Клунес, Голди Нотай, Тоби Регбо и др.

Описание: Марку 30 лет, он вернулся в родной городок из-за трагедии произошедшей в семье - родители покончили жизнь самоубийством. В городке своем он не был 10 лет, и возвращаться нелегко. Прошлая жизнь – школьные друзья, первая любовь, непонятно убили родители себя сами или им, кто помог – затягивает Марка, и ему приходится выбирать: уехать или остаться в этом маленьком городке навсегда.



Перевод: darkling и teattack
Озвучка: Solncekleshka (Татьяна Романовская), marviha (Марина Видякина), Lalusha (Алла Блаер)
Pro-Snip (Дмитрий Иванов), IgVin (Игорь Головин), Дмитрий Кравченко

Работа со звуком: viruse (Виталий Емельянов)
Рип видео: viruse (Виталий Емельянов)
Постер: DirtySouth



Качество: HDTVRip
Формат: AVI
Видео кодек: XviD
Аудио кодек: MP3
Видео: 720x400 (1.80:1), 25 fps, ~1205 kbps, 0.17 bit/pixel
Аудио rus: 48 kHz, MPEG Layer 3, 2 ch, 128 kbps avg

Добавлена третья серия. Сезон полностью.

Формат : AVI
Формат/Информация : Audio Video Interleave
Размер файла : 453 Мбайт
Продолжительность : 47 м.
Общий поток : 1343 Кбит/сек
Программа кодирования : VirtualDubMod 1.5.10.2 (build 2540/release)
Библиотека кодирования : VirtualDubMod build 2540/release

Видео
Идентификатор : 0
Формат : MPEG-4 Visual
Профиль формата : Advanced Simple@L5
Параметр BVOP формата : 1
Параметр QPel формата : Нет
Параметр GMC формата : Без точки перехода
Параметр матрицы формата : Default (MPEG)
Идентификатор кодека : XVID
Идентификатор кодека/Подсказка : XviD
Продолжительность : 47 м.
Битрейт : 1206 Кбит/сек
Ширина : 720 пикс.
Высота : 400 пикс.
Соотношение сторон : 16:9
Частота кадров : 25,000 кадр/сек
Цветовое пространство : YUV
Подвыборка цветности : 4:2:0
Битовая глубина : 8 бит
Тип развёртки : Прогрессивная
Метод сжатия : С потерями
Бит/(Пиксели*Кадры) : 0.167
Размер потока : 407 Мбайт (90%)
Библиотека кодирования : XviD 1.2.1 (UTC 2008-12-04)

Аудио
Идентификатор : 1
Формат : MPEG Audio
Версия формата : Version 1
Профиль формата : Layer 3
Идентификатор кодека : 55
Идентификатор кодека/Подсказка : MP3
Продолжительность : 47 м.
Вид битрейта : Постоянный
Битрейт : 128 Кбит/сек
Каналы : 2 канала
Частота : 48,0 КГц
Метод сжатия : С потерями
Размер потока : 43,2 Мбайт (10%)
Выравнивание : Соединение по промежуткам
Продолжительность промежутка : 40 мс. (1,00 видеокадр)
Время предзагрузки промежутка : 504 ms
Библиотека кодирования : LAME3.98r
Настройки программы : -m s -V 4 -q 2 -lowpass 17 -b 128



Релиз от:



   Похожие торренты   Торрент   Размер 
В этой теме нет новых непрочитанных сообщений. Городок / The Town [01x01-03 из 03] (2012) HDTVRip 720p | Много ТВ, ViruseProject

7 | 3

2.46 ГБ

В этой теме нет новых непрочитанных сообщений. Птичий городок / Birds town (2011) PC

27 | 9

79.35 МБ

В этой теме нет новых непрочитанных сообщений. Куриный городок / Chicken Town [01-39 из 39] (2011) SATRip

8 | 5

4.32 ГБ

В этой теме нет новых непрочитанных сообщений. Рождественский городок / Christmas Town (2008) SATRip от RG MixTorrent

1 | 16

1.1 ГБ

В этой теме нет новых непрочитанных сообщений. Городок. Городок по средствам (2012) SATRip от КинозалSAT

2 | 4

349.29 МБ

В этой теме нет новых непрочитанных сообщений. Городок. Городок с добавками (2012) SATRip от КинозалSAT

3 | 8

349.69 МБ

В этой теме нет новых непрочитанных сообщений. Городок. Городок с физическим лицом (2007) SATRip by Хоттабыч (BigFANGroup)

0 | 1

219.12 МБ




Вы не можете начинать темы
Вы не можете отвечать на сообщения
Вы не можете редактировать свои сообщения
Вы не можете удалять свои сообщения
Вы не можете добавлять вложения

Перейти:  
Для Мосгорсуда, Роскомнадзора и рекламодателей: mosgorsud-torrent[собачка]yandex.ru
 Вход
ppkBB3cker v.2 © 2008-2014 @ PPK
[ Time : 0.060s | 14 Queries | GZIP : Off ]

Торрент трекер RUTOR.IN, Не можете зайти на rutor.org? Какой новый адрес рутор? Какое зеркало рутор? Не работает rutor.org и зеркала? Тогда наш торрент специально для вас. Rutor.in неофициальное зеркало rutor. В случае если у Вас заблокирован rutor или вдруг Вы не можете на него зайти, то Вы без труда сможете скачать бесплатно и без рекламы последние новинки кино, игр, сериалов и прочего у нас, на Rutor.in. Не нужно использовать прокси, чтобы зайти на рутор, достаточно воспользоваться нашим ресурсом. Все новые фильмы, игры, сериалы, книги и музыка за 2013 и 2014 годы через торрент бесплатно. Скачивайте фильмы в хорошем качестве, игры для пк, xbox, playstation без регистрации. У нас вы найдете новые Зарубежные сериалы и Русские сериалы 2013, 2014, 2015 годов. Оставайтесь с нами, качайте любимые фильмы, игры, сериалы, книги и музыку.