img image001 image001 image001 image001 image001 image001 image001 image001 image001 image001 image001 image001 image001 image001 image001

Planets Sun Sun Sun
Статистика раздачи
Автор: Снежана | Размер: 2.74 ГБ | Добавлен: 25 июл 2013
Раздают: 7    Качают: 2
Скачать торрент
Скачать торрент
Описание торрента

СообщениеДобавлено: 25 июл 2013 

#77

Название: Тишина
Оригинальное название: The Silence
Год выпуска: 2010
Жанр: триллер, драма, криминал, детектив
Режиссер: Дирбла Уолш
В ролях: Дуглас Хеншэлл, Женевьев Барр, Дервла Кирван, Гарри Феррье, Джина МакКи, Хью Бонневилль и другие...

Описание: 18-летняя глухая девушка Амелия (Женевьев Барр) становится единственной свидетельницей в деле о жестоком убийстве, которое ведет ее дядя - инспектор Джим Эдвардс (Дуглас Хеншэлл). Все осложняется, когда становится известно, что в убийстве замешаны полицейские из отдела, в котором работает Эдвардс...



Страна: Великобритания
Продолжительность: 04 x ~ 00:45:00
Перевод: Любительский (двухголосый, закадровый) - To4ka
Субтитры: Нет

Перевод: tds2008
Озвучка: Мария и Валерий Панч
Монтаж: veryserg
Редакция: veretskiy



Качество: HDTVRip
Формат: AVI
Видео: XviD, 720x400 (16:9), 25.000 fps, ~1300 kbps, ~0.180 bit/pixel
Аудио rus: AC3, 48 kHz, 2 ch, ~192 kbps
Аудио eng: AC3, 48 kHz, 2 ch, ~192 kbps

Общее
Формат : AVI
Формат/Информация : Audio Video Interleave
Размер файла : 701 Мбайт
Продолжительность : 57 м.
Общий поток : 1702 Кбит/сек
Программа кодирования : VirtualDubMod 1.6.0.0 SURROUND (build 2560/release)
Библиотека кодирования : VirtualDubMod build 2560/release

Видео
Идентификатор : 0
Формат : MPEG-4 Visual
Профиль формата : Advanced Simple@L5
Параметр BVOP формата : 1
Параметр QPel формата : Нет
Параметр GMC формата : Без точки перехода
Параметр матрицы формата : Default (MPEG)
Идентификатор кодека : XVID
Идентификатор кодека/Подсказка : XviD
Продолжительность : 57 м.
Битрейт : 1303 Кбит/сек
Ширина : 720 пикселей
Высота : 400 пикселей
Соотношение сторон : 16:9
Частота кадров : 25,000 кадров/сек
Цветовое пространство : YUV
Субдискретизация насыщенности : 4:2:0
Битовая глубина : 8 бит
Тип развёртки : Прогрессивная
Метод сжатия : С потерями
Бит/(Пиксели*Кадры) : 0.181
Размер потока : 536 Мбайт (77%)
Библиотека кодирования : XviD 64

Аудио #1
Идентификатор : 1
Формат : AC-3
Формат/Информация : Audio Coding 3
Расширение режима : CM (complete main)
Параметр Endianness формата : Big
Идентификатор кодека : 2000
Продолжительность : 57 м.
Вид битрейта : Постоянный
Битрейт : 192 Кбит/сек
Каналы : 2 канала
Расположение каналов : Front: L R
Частота : 48,0 КГц
Битовая глубина : 16 бит
Метод сжатия : С потерями
Размер потока : 79,0 Мбайт (11%)
Выравнивание : Разделение по промежуткам
Продолжительность промежутка : 40 мс. (1,00 видеокадр)
Время предзагрузки промежутка : 500 мс.

Аудио #2
Идентификатор : 2
Формат : AC-3
Формат/Информация : Audio Coding 3
Расширение режима : CM (complete main)
Параметр Endianness формата : Big
Идентификатор кодека : 2000
Продолжительность : 57 м.
Вид битрейта : Постоянный
Битрейт : 192 Кбит/сек
Каналы : 2 канала
Расположение каналов : Front: L R
Частота : 48,0 КГц
Битовая глубина : 16 бит
Метод сжатия : С потерями
Размер потока : 79,0 Мбайт (11%)
Выравнивание : Разделение по промежуткам
Продолжительность промежутка : 40 мс. (1,00 видеокадр)
Время предзагрузки промежутка : 500 мс.


Релиз от:



   Похожие торренты   Торрент   Размер 
В этой теме нет новых непрочитанных сообщений. Мертвая тишина / Dead Silence (2010) PC

5 | 3

953.36 МБ

В этой теме нет новых непрочитанных сообщений. Молчание / Тишина / Das letzte Schweigen / The Silence (2010) BDRip | L1

160 | 71

2.05 ГБ

В этой теме нет новых непрочитанных сообщений. Молчание / Тишина / Das letzte Schweigen / The Silence (2010) BDRip 1080p от CINEMANIA | L1

10 | 178

7.67 ГБ

В этой теме нет новых непрочитанных сообщений. Молчание / Тишина / Das letzte Schweigen / The Silence (2010) BDRip 720p от CINEMANIA | L1

38 | 79

8.08 ГБ

В этой теме нет новых непрочитанных сообщений. Тишина / Silence (2015) DVDRip | P

83 | 12

1.45 ГБ

В этой теме нет новых непрочитанных сообщений. Мертвая тишина / Dead Silence (2007) HD-DVDRip 720p

40 | 16

4.37 ГБ

В этой теме нет новых непрочитанных сообщений. Мертвая тишина / Dead Silence (2007) BDRip от HELLYWOOD

488 | 77

1.45 ГБ




Вы не можете начинать темы
Вы не можете отвечать на сообщения
Вы не можете редактировать свои сообщения
Вы не можете удалять свои сообщения
Вы не можете добавлять вложения

Перейти:  
Для Мосгорсуда, Роскомнадзора и рекламодателей: mosgorsud-torrent[собачка]yandex.ru
 Вход
ppkBB3cker v.2 © 2008-2014 @ PPK
[ Time : 0.062s | 14 Queries | GZIP : Off ]

Торрент трекер RUTOR.IN, Не можете зайти на rutor.org? Какой новый адрес рутор? Какое зеркало рутор? Не работает rutor.org и зеркала? Тогда наш торрент специально для вас. Rutor.in неофициальное зеркало rutor. В случае если у Вас заблокирован rutor или вдруг Вы не можете на него зайти, то Вы без труда сможете скачать бесплатно и без рекламы последние новинки кино, игр, сериалов и прочего у нас, на Rutor.in. Не нужно использовать прокси, чтобы зайти на рутор, достаточно воспользоваться нашим ресурсом. Все новые фильмы, игры, сериалы, книги и музыка за 2013 и 2014 годы через торрент бесплатно. Скачивайте фильмы в хорошем качестве, игры для пк, xbox, playstation без регистрации. У нас вы найдете новые Зарубежные сериалы и Русские сериалы 2013, 2014, 2015 годов. Оставайтесь с нами, качайте любимые фильмы, игры, сериалы, книги и музыку.