img image001 image001 image001 image001 image001 image001 image001 image001 image001 image001 image001 image001 image001 image001 image001

Planets Sun Sun Sun
Статистика раздачи
Автор: Снежана | Размер: 15.5 ГБ | Добавлен: 25 июл 2013
Раздают: 17    Качают: 4
Скачать торрент
Скачать торрент
Описание торрента

СообщениеДобавлено: 25 июл 2013 

#77

Информация о фильме
Название: Друзья
Оригинальное название: Friends
Год выхода: 1994-1995
Жанр: Sitcom
Режиссер: David Crane, Marta Kauffman
В ролях: Jennifer Aniston, Courteney Cox Arquette, Lisa Kudrow, Matt LeBlanc, Matthew Perry, David Schwimmer

О фильме:
Главные герои — шестеро друзей — Рейчел, Моника, Фиби, Джоуи, Чендлер и Росс. Три девушки и три парня, которые дружат, живут по соседству, вместе убивают время и противостоят жестокой реальности, делятся своими секретами и иногда очень сильно влюбляются.

Сериал признан одним из лучших комедийных сериалов в истории американского телевидения и стал одним из наиболее заметных проектов 1990-х годов. Сама постановка и творческая группа получили множество наград, в том числе шесть премий «Эмми» и премию «Золотой глобус».

Страна: США
Студия: Канал NBC
Продолжительность: 24 x ∼23мин

Файл
Формат: m4v
Кодек: H.264
Качество: BDRip-AVC
Видео: 1024x576 (16:9), ∼3250kbps, 23,976fps
Звук: AAC, 2 channels, 48.0 KHz, 160kbps VBR
Аудио 1: Русский - профессиональный многоголосый закадровый
Аудио 2: Украинский - профессиональный многоголосый закадровый
Аудио 3: Английский - оригинал
Аудио 4: Французский - дублированный
Аудио 5: Немецкий - дублированный
Субтитры: Английские, французские, немецкие, испанские, португальские, датские, финские, норвежские, шведские, нидерландские
Метатэги: Прописаны
Навигация по главам: есть

Раздача будет полезна пользователям iOS и OS X платформ.
При просмотре на Windows рекомендую пользоваться iTunes или VLC media player.


1 серия

x264 [info]: frame I:358 Avg QP:16.33 size:102988 PSNR Mean Y:47.27 U:51.00 V:51.92 Avg:48.26 Global:47.50
x264 [info]: frame P:6645 Avg QP:19.07 size: 38443 PSNR Mean Y:45.22 U:49.80 V:50.81 Avg:46.27 Global:45.09
x264 [info]: frame B:25807 Avg QP:22.16 size: 11873 PSNR Mean Y:41.90 U:48.35 V:49.53 Avg:43.24 Global:43.07
x264 [info]: consecutive B-frames: 2.1% 0.7% 3.0% 21.0% 19.6% 47.1% 6.6%
x264 [info]: mb I I16..4: 5.4% 69.7% 24.9%
x264 [info]: mb P I16..4: 1.3% 10.5% 3.1% P16..4: 32.9% 30.2% 16.5% 0.0% 0.0% skip: 5.6%
x264 [info]: mb B I16..4: 0.1% 1.3% 0.4% B16..8: 40.6% 12.5% 3.8% direct: 7.5% skip:33.8% L0:42.4% L1:43.3% BI:14.3%
x264 [info]: 8x8 transform intra:71.5% inter:56.9%
x264 [info]: coded y,uvDC,uvAC intra: 91.1% 81.0% 50.6% inter: 36.6% 23.1% 1.8%
x264 [info]: i16 v,h,dc,p: 57% 13% 8% 22%
x264 [info]: i8 v,h,dc,ddl,ddr,vr,hd,vl,hu: 12% 8% 4% 10% 14% 15% 13% 13% 11%
x264 [info]: i4 v,h,dc,ddl,ddr,vr,hd,vl,hu: 11% 7% 3% 9% 15% 17% 14% 14% 13%
x264 [info]: i8c dc,h,v,p: 37% 22% 25% 16%
x264 [info]: Weighted P-Frames: Y:2.9% UV:1.6%
x264 [info]: ref P L0: 44.3% 12.1% 16.8% 8.3% 6.2% 4.7% 3.7% 2.3% 1.7% 0.1% 0.0%
x264 [info]: ref B L0: 75.2% 13.1% 4.9% 2.6% 1.8% 1.3% 0.7% 0.3%
x264 [info]: ref B L1: 94.4% 5.6%
x264 [info]: SSIM Mean Y:0.9766362 (16.315db)
x264 [info]: PSNR Mean Y:42.631 U:48.670 V:49.818 Avg:43.907 Global:43.439 kb/s:3500.18

General
Format : MPEG-4
Codec ID : M4V
File size : 704 MiB
Duration : 22mn 49s
Overall bit rate mode : Variable
Overall bit rate : 4 312 Kbps
Movie name : The One Where Monica Gets A Roommate
Part/Position : 1
Track name/Position : 1
Track name/Total : 24
Performer : Friends
Genre : Sitcom
Recorded date : 1994-09-22
Encoded date : UTC 2013-01-17 14:35:53
Tagged date : UTC 2013-01-17 14:50:03
Cover : Yes
tvsh : Friends
tven : 475085
tvsn : 1
tves : 1
sosn : Friends
desc : This is the one where it all began ... Rachel leaves Barry at the altar, meets the gang, and moves in with Monica. Monica, meanwhile, sleeps with Paul the Wine Guy, and Ross is reeling from his divorce from Carol, who has become a lesbian.
ldes : This is the one where it all began ... Rachel leaves Barry at the altar, meets the gang, and moves in with Monica. Monica, meanwhile, sleeps with Paul the Wine Guy, and Ross is reeling from his divorce from Carol, who has become a lesbian.
hdvd : 1
stik : 10
rtng : 0

Video #1
ID : 1
Format : AVC
Format/Info : Advanced Video Codec
Format profile : High@L4.0
Format settings, CABAC : Yes
Format settings, ReFrames : 9 frames
Codec ID : avc1
Codec ID/Info : Advanced Video Coding
Duration : 22mn 48s
Bit rate mode : Variable
Bit rate : 3 500 Kbps
Width : 1 024 pixels
Height : 576 pixels
Display aspect ratio : 16:9
Frame rate mode : Variable
Frame rate : 23.976 fps
Minimum frame rate : 23.974 fps
Maximum frame rate : 23.981 fps
Color space : YUV
Chroma subsampling : 4:2:0
Bit depth : 8 bits
Scan type : Progressive
Bits/(Pixel*Frame) : 0.247
Stream size : 571 MiB (81%)
Writing library : x264 core 120
Encoding settings : cabac=1 / ref=9 / deblock=1:0:0 / analyse=0x3:0x113 / me=umh / subme=9 / psy=1 / psy_rd=1.00:0.00 / mixed_ref=1 / me_range=32 / chroma_me=1 / trellis=1 / 8x8dct=1 / cqm=0 / deadzone=21,11 / fast_pskip=1 / chroma_qp_offset=-2 / threads=3 / sliced_threads=0 / nr=0 / decimate=1 / interlaced=0 / bluray_compat=0 / constrained_intra=0 / bframes=6 / b_pyramid=2 / b_adapt=2 / b_bias=0 / direct=1 / weightb=1 / open_gop=0 / weightp=2 / keyint=240 / keyint_min=24 / scenecut=40 / intra_refresh=0 / rc_lookahead=40 / rc=2pass / mbtree=1 / bitrate=3500 / ratetol=1.0 / qcomp=0.60 / qpmin=3 / qpmax=69 / qpstep=4 / cplxblur=20.0 / qblur=0.5 / ip_ratio=1.40 / aq=1:1.00
Language : English
Encoded date : UTC 2013-01-17 14:35:53
Tagged date : UTC 2013-01-17 14:36:17
Color primaries : BT.709-5, BT.1361, IEC 61966-2-4, SMPTE RP177
Transfer characteristics : BT.709-5, BT.1361
Matrix coefficients : BT.709-5, BT.1361, IEC 61966-2-4 709, SMPTE RP177

Video #2
ID : 18
Format : JPEG
Codec ID : jpeg
Duration : 22mn 48s
Bit rate mode : Variable
Bit rate : 1 690 bps
Width : 640 pixels
Height : 360 pixels
Display aspect ratio : 16:9
Frame rate mode : Variable
Frame rate : 0.003 fps
Minimum frame rate : 0.002 fps
Maximum frame rate : 0.025 fps
Color space : YUV
Chroma subsampling : 4:2:0
Bit depth : 8 bits
Compression mode : Lossy
Bits/(Pixel*Frame) : 2.445
Stream size : 275 KiB (0%)
Language : English
Encoded date : UTC 2013-01-17 14:41:17
Tagged date : UTC 2013-01-17 14:41:17

Audio #1
ID : 2
Format : AAC
Format/Info : Advanced Audio Codec
Format profile : LC
Codec ID : 40
Duration : 22mn 46s
Bit rate mode : Variable
Bit rate : 160 Kbps
Maximum bit rate : 323 Kbps
Channel(s) : 2 channels
Channel positions : Front: L R
Sampling rate : 48.0 KHz
Compression mode : Lossy
Stream size : 26.1 MiB (4%)
Language : Russian
Encoded date : UTC 2013-01-17 14:35:53
Tagged date : UTC 2013-01-17 14:36:24

Audio #2
ID : 3
Format : AAC
Format/Info : Advanced Audio Codec
Format profile : LC
Codec ID : 40
Duration : 22mn 49s
Bit rate mode : Variable
Bit rate : 159 Kbps
Maximum bit rate : 267 Kbps
Channel(s) : 2 channels
Channel positions : Front: L R
Sampling rate : 48.0 KHz
Compression mode : Lossy
Stream size : 26.0 MiB (4%)
Language : Ukrainian
Encoded date : UTC 2013-01-17 14:35:53
Tagged date : UTC 2013-01-17 14:36:32

Audio #3
ID : 4
Format : AAC
Format/Info : Advanced Audio Codec
Format profile : LC
Codec ID : 40
Duration : 22mn 49s
Bit rate mode : Variable
Bit rate : 159 Kbps
Maximum bit rate : 337 Kbps
Channel(s) : 2 channels
Channel positions : Front: L R
Sampling rate : 48.0 KHz
Compression mode : Lossy
Stream size : 26.0 MiB (4%)
Language : English
Encoded date : UTC 2013-01-17 14:35:53
Tagged date : UTC 2013-01-17 14:36:40

Audio #4
ID : 5
Format : AAC
Format/Info : Advanced Audio Codec
Format profile : LC
Codec ID : 40
Duration : 22mn 49s
Bit rate mode : Variable
Bit rate : 159 Kbps
Maximum bit rate : 312 Kbps
Channel(s) : 2 channels
Channel positions : Front: L R
Sampling rate : 48.0 KHz
Compression mode : Lossy
Stream size : 26.0 MiB (4%)
Language : French
Encoded date : UTC 2013-01-17 14:35:53
Tagged date : UTC 2013-01-17 14:36:42

Audio #5
ID : 6
Format : AAC
Format/Info : Advanced Audio Codec
Format profile : LC
Codec ID : 40
Duration : 22mn 49s
Bit rate mode : Variable
Bit rate : 159 Kbps
Maximum bit rate : 291 Kbps
Channel(s) : 2 channels
Channel positions : Front: L R
Sampling rate : 48.0 KHz
Compression mode : Lossy
Stream size : 26.0 MiB (4%)
Language : German
Encoded date : UTC 2013-01-17 14:35:53
Tagged date : UTC 2013-01-17 14:36:43

Text #1
ID : 7
Format : Timed text
Muxing mode : sbtl
Codec ID : tx3g
Duration : 22mn 46s
Bit rate mode : Variable
Bit rate : 86 bps
Stream size : 14.4 KiB (0%)
Language : English
Encoded date : UTC 2013-01-17 14:35:54
Tagged date : UTC 2013-01-17 14:41:11

Text #2
ID : 8
Format : Timed text
Muxing mode : sbtl
Codec ID : tx3g
Duration : 22mn 46s
Bit rate mode : Variable
Bit rate : 74 bps
Stream size : 12.3 KiB (0%)
Language : French
Encoded date : UTC 2013-01-17 14:35:54
Tagged date : UTC 2013-01-17 14:41:12

Text #3
ID : 9
Format : Timed text
Muxing mode : sbtl
Codec ID : tx3g
Duration : 22mn 46s
Bit rate mode : Variable
Bit rate : 95 bps
Stream size : 15.8 KiB (0%)
Language : German
Encoded date : UTC 2013-01-17 14:35:54
Tagged date : UTC 2013-01-17 14:41:11

Text #4
ID : 10
Format : Timed text
Muxing mode : sbtl
Codec ID : tx3g
Duration : 22mn 46s
Bit rate mode : Variable
Bit rate : 71 bps
Stream size : 11.8 KiB (0%)
Language : Spanish
Encoded date : UTC 2013-01-17 14:35:54
Tagged date : UTC 2013-01-17 14:41:12

Text #5
ID : 11
Format : Timed text
Muxing mode : sbtl
Codec ID : tx3g
Duration : 22mn 46s
Bit rate mode : Variable
Bit rate : 69 bps
Stream size : 11.5 KiB (0%)
Language : Portuguese
Encoded date : UTC 2013-01-17 14:35:54
Tagged date : UTC 2013-01-17 14:41:12

Text #6
ID : 12
Format : Timed text
Muxing mode : sbtl
Codec ID : tx3g
Duration : 22mn 46s
Bit rate mode : Variable
Bit rate : 68 bps
Stream size : 11.4 KiB (0%)
Language : Danish
Encoded date : UTC 2013-01-17 14:35:54
Tagged date : UTC 2013-01-17 14:41:12

Text #7
ID : 13
Format : Timed text
Muxing mode : sbtl
Codec ID : tx3g
Duration : 22mn 46s
Bit rate mode : Variable
Bit rate : 63 bps
Stream size : 10.4 KiB (0%)
Language : Finnish
Encoded date : UTC 2013-01-17 14:35:54
Tagged date : UTC 2013-01-17 14:41:11

Text #8
ID : 14
Format : Timed text
Muxing mode : sbtl
Codec ID : tx3g
Duration : 22mn 46s
Bit rate mode : Variable
Bit rate : 58 bps
Stream size : 9.61 KiB (0%)
Language : Norwegian
Encoded date : UTC 2013-01-17 14:35:54
Tagged date : UTC 2013-01-17 14:41:12

Text #9
ID : 15
Format : Timed text
Muxing mode : sbtl
Codec ID : tx3g
Duration : 22mn 46s
Bit rate mode : Variable
Bit rate : 63 bps
Stream size : 10.6 KiB (0%)
Language : Swedish
Encoded date : UTC 2013-01-17 14:35:54
Tagged date : UTC 2013-01-17 14:41:11

Text #10
ID : 16
Format : Timed text
Muxing mode : sbtl
Codec ID : tx3g
Duration : 1s 72ms
Duration_FirstFrame : -930ms
Bit rate mode : Constant
Bit rate : 30 bps
Stream size : 4.00 Bytes (0%)
Language : Dutch
Encoded date : UTC 2013-01-17 14:35:54
Tagged date : UTC 2013-01-17 14:41:12

Text #11
ID : 17
Format : Apple text
Codec ID : text
Duration : 22mn 48s
Bit rate mode : Constant
Bit rate : 1 bps
Stream size : 92.0 Bytes (0%)
Language : English
Encoded date : UTC 2013-01-17 14:41:12
Tagged date : UTC 2013-01-17 14:41:12

Menu
00:00:00.000 : Chapter 1
00:05:10.184 : Chapter 2
00:14:11.725 : Chapter 3
00:22:09.160 : Chapter 4



   Похожие торренты   Торрент   Размер 
В этой теме нет новых непрочитанных сообщений. Друзья / Friends [S02] (1995-1996) BDRip-AVC | iPad

16 | 5

14.87 ГБ

В этой теме нет новых непрочитанных сообщений. Друзья / Friends [S01] (1994-1995) BDRip-AVC от HQCLUB

492 | 136

10.56 ГБ

В этой теме нет новых непрочитанных сообщений. Друзья / Friends [S01] (1994-1995) HDTVRip-AVC

74 | 17

9.56 ГБ

В этой теме нет новых непрочитанных сообщений. Друзья / Friends [S01] (1994-1995) HDTV 720p

80 | 25

19.64 ГБ

В этой теме нет новых непрочитанных сообщений. Друзья / Friends [S07] (2000-2001) BDRip-AVC | iPad

6 | 17

12.7 ГБ

В этой теме нет новых непрочитанных сообщений. Друзья / Friends [S03] (1996-1997) BDRip-AVC | iPad

10 | 5

16.12 ГБ

В этой теме нет новых непрочитанных сообщений. Друзья / Friends [S10] (2003-2004) BDRip-AVC | iPad

30 | 12

9.65 ГБ




Вы не можете начинать темы
Вы не можете отвечать на сообщения
Вы не можете редактировать свои сообщения
Вы не можете удалять свои сообщения
Вы не можете добавлять вложения

Перейти:  
Для Мосгорсуда, Роскомнадзора и рекламодателей: mosgorsud-torrent[собачка]yandex.ru
 Вход
ppkBB3cker v.2 © 2008-2014 @ PPK
[ Time : 0.030s | 15 Queries | GZIP : Off ]

Торрент трекер RUTOR.IN, Не можете зайти на rutor.org? Какой новый адрес рутор? Какое зеркало рутор? Не работает rutor.org и зеркала? Тогда наш торрент специально для вас. Rutor.in неофициальное зеркало rutor. В случае если у Вас заблокирован rutor или вдруг Вы не можете на него зайти, то Вы без труда сможете скачать бесплатно и без рекламы последние новинки кино, игр, сериалов и прочего у нас, на Rutor.in. Не нужно использовать прокси, чтобы зайти на рутор, достаточно воспользоваться нашим ресурсом. Все новые фильмы, игры, сериалы, книги и музыка за 2013 и 2014 годы через торрент бесплатно. Скачивайте фильмы в хорошем качестве, игры для пк, xbox, playstation без регистрации. У нас вы найдете новые Зарубежные сериалы и Русские сериалы 2013, 2014, 2015 годов. Оставайтесь с нами, качайте любимые фильмы, игры, сериалы, книги и музыку.
cron