img image001 image001 image001 image001 image001 image001 image001 image001 image001 image001 image001 image001 image001 image001 image001

Planets Sun Sun Sun
Статистика раздачи
Автор: Снежана | Размер: 4.02 ГБ | Добавлен: 25 июл 2013
Раздают: 12    Качают: 4
Скачать торрент
Скачать торрент
Описание торрента

СообщениеДобавлено: 25 июл 2013 

#77

Информация о фильме
Название: H+: Цифровой сериал
Оригинальное название: H+: The Digital Series
Год выхода: 2011-2012
Жанр: фантастика, Триллер, Киберпанк
Режиссер: Стюарт Хэндлер
В ролях: Ханна Херцшпрунг, Алексис Денисоф, Шон Ганн, Дэвид Клэйтон Роджерз

О фильме:
В недалёком будущем треть населения мира воспользовалась возможностью подключить человеческий разум к Интернету на все 24 часа в сутки. Имплантат, названный H+, стал воплощением идеи трансгуманизма - мировоззрения, поддерживающего трансформацию человека с помощью передовых технологий. Но что будет, если однажды система даст сбой? Человечество уходит в офф-лайн, а вместе с ним отключается и человечность. На смену гуманности приходит выживание.



Страна: США
Продолжительность: 01:29:27 и 01:27:18
Перевод: Любительский двухголосый закадровый ( pandora2177 и Виктор Ерёменко)
Доп. информация:
Сериал смонтирован из 48 серий в две. Вырезаны вступления и анонсы. Названия всех эпизодов обозначены в фильме.

VirtualDub Mod
Wondershare Video Editor


Формат : AVI
Формат/Информация : Audio Video Interleave
Профиль формата : OpenDML
Размер файла : 2,07 Гбайт
Продолжительность : 1 ч. 29 м.
Общий поток : 3307 Кбит/сек

Видео
Идентификатор : 0
Формат : MPEG-4 Visual
Профиль формата : Simple@L3
Параметр BVOP формата : Нет
Параметр QPel формата : Нет
Параметр GMC формата : Без точки перехода
Параметр матрицы формата : Default (H.263)
Идентификатор кодека : XVID
Идентификатор кодека/Подсказка : XviD
Продолжительность : 1 ч. 29 м.
Битрейт : 3097 Кбит/сек
Ширина : 1280 пикс.
Высота : 720 пикс.
Соотношение сторон : 16:9
Частота кадров : 29,970 кадр/сек
Частота кадров в оригинале : 29,000 кадр/сек
Цветовое пространство : YUV
Подвыборка цветности : 4:2:0
Битовая глубина : 8 бит
Тип развёртки : Прогрессивная
Метод сжатия : С потерями
Бит/(Пиксели*Кадры) : 0.112
Размер потока : 1,94 Гбайт (94%)
Библиотека кодирования : XviD 1.2.1 (UTC 2008-12-04)

Аудио
Идентификатор : 1
Формат : MPEG Audio
Версия формата : Version 1
Профиль формата : Layer 3
Режим : Joint stereo
Расширение режима : MS Stereo
Идентификатор кодека : 55
Идентификатор кодека/Подсказка : MP3
Продолжительность : 1 ч. 29 м.
Вид битрейта : Постоянный
Битрейт : 192 Кбит/сек
Каналы : 2 канала
Частота : 44,1 КГц
Метод сжатия : С потерями
Размер потока : 123 Мбайт (6%)
Выравнивание : Соединение по промежуткам
Продолжительность промежутка : 26 мс. (0,78 видеокадр)
Библиотека кодирования : LAME3.98.2

Сэмпл

Файл
Кодек: XviD
Качество: WEB-DL 720p
Видео: 1280x720 (4:2:0),29,9 fps, XviD (H.263) build 64 ~3097 Кбит/сек
Звук: RUS: 48 kHz, AC3 Dolby Digital, 2/0 (L,R) ch, ~192 kbps




   Похожие торренты   Торрент   Размер 
В этой теме нет новых непрочитанных сообщений. H+ Цифровой сериал / H+ The Digital Series [01-38 из 48] (2012) WEBRip 720p | Baibako

1 | 1

3.09 ГБ

В этой теме нет новых непрочитанных сообщений. H+ Цифровой сериал / H+ The Digital Series [01-44 из 48] (2012) WEBRip | L2

1 | 5

3.7 ГБ

В этой теме нет новых непрочитанных сообщений. H+ Цифровой сериал / H+ The Digital Series [01-33 из 48] (2012) WEBRip | Baibako

1 | 3

2.61 ГБ

В этой теме нет новых непрочитанных сообщений. Зеленый Фонарь: Анимационный сериал / Green Lantern: The Animated Series [01х01-13 из 13] (2012) WEB-DLRip | RG Amigos

1 | 2

4.66 ГБ

В этой теме нет новых непрочитанных сообщений. Цифровой человек / Digital Man (1995) DVDRip от Кинорадиомагия | A

85 | 9

1.37 ГБ

В этой теме нет новых непрочитанных сообщений. Цифровой человек / Digital Man (1995) DVDRip от torrentfilm | P2

258 | 135

747.2 МБ

В этой теме нет новых непрочитанных сообщений. Зеленый Фонарь: Анимационный сериал / Green Lantern: The Animated Series [01x01-26 из 26] (2011-2013) DVDRip-AVC от New-Team | D | лицензия

84 | 164

8.4 ГБ




Вы не можете начинать темы
Вы не можете отвечать на сообщения
Вы не можете редактировать свои сообщения
Вы не можете удалять свои сообщения
Вы не можете добавлять вложения

Перейти:  
Для Мосгорсуда, Роскомнадзора и рекламодателей: mosgorsud-torrent[собачка]yandex.ru
 Вход
ppkBB3cker v.2 © 2008-2014 @ PPK
[ Time : 3.762s | 16 Queries | GZIP : Off ]

cron