img image001 image001 image001 image001 image001 image001 image001 image001 image001 image001 image001 image001 image001 image001 image001

Planets Sun Sun Sun
Статистика раздачи
Автор: Снежана | Размер: 7.11 ГБ | Добавлен: 25 июл 2013
Раздают: 0    Качают: 1
Скачать торрент
Скачать торрент
Описание торрента

СообщениеДобавлено: 25 июл 2013 

#77

Название: Крайние меры / Отчаянные меры
Оригинальное название: Last Resort
Год выпуска: 2012
Страна: США
Жанр: Боевик, триллер, драма, детектив
Продолжительность: 13 х ~ 00:44:00
Перевод: Профессиональный (многоголосый закадровый) - LostFilm
Субтитры: нет
Режиссер: Мартин Кэмпбелл, Кевин Хукс, Майкл Оффер

В ролях: Андре Брогер, Скотт Спидман, Дэйзи Беттс, Дичен Лакмэн, Дэниел Лизинг, Отем Ризер, Роберт Патрик, Омид Абтахи, Дарри Инголфссон, Радж К. Бозе, Мэтт Джералд, Макс Адлер, Дэвид Риис Снелл, Майкл ЭнДжи, Джессика Камачо, Уилл Ротхаар, Брюс Дэвисон, Дэниэл Бесс, Джоди Джарвис, Джейсон Куинн, Касим Сауль, Камакани Де Дели, Пол Эдни, Ассаф Коэн, Чад Коллинз, Дженни Ливайн

Описание: На глубине 500 футов под поверхностью океана, американская атомная подводная лодка «Колорадо» получает приказ по радиоканалу, предназначенному для использования только в том случае, если их родина находится под угрозой уничтожения. Им приказывают нанести ядерный удар по Пакистану. Капитан Маркус Чаплин требует подтверждения приказа специально, чтобы Белый Дом отстранил его от должностных обязанностей. Старший помощник командира Сэм Кендал неожиданно становится ответственным за субмарину и сталкивается с тем, что ему нужно принять непростое решение. Когда он отказывается стрелять без подтверждения приказа, подлодку атакуют, и она получает пробоину. Субмарина и её экипаж оказываются на дне океана, признанные врагами своей страны. И в этот момент, когда все пути назад закрыты, Чаплин и Кендал решают выбраться на остров. Здесь они найдут убежище и шанс на новую жизнь, даже когда они попытаются очистить свои имена и вернуться домой.



Качество: WEB-DLRip
Формат: AVI
Видео кодек: XviD
Аудио кодек: MP3
Видео: XviD, ~ 1650 Кбит/с, 720x400
Аудио: MP3, 2 ch, 128-192 Кбит/с

Добавлена 13-ая серия. Полный сезон. Сериал закрыт.

01. Капитан / Captain
02. Огонь по своим / Blue on Blue
03. Восемь склянок / Eight Bells
04. Добровольцы поневоле / Voluntold
05. Неполный экипаж / Skeleton Crew
06. Ещё один денёк на флоте / Another Fine Navy Day
07. На грани взрыва / Nuke It Out
08. Увольнение за недостойное поведение / Big Chicken Dinner
09. Вернуться к полуночи / Cinderella Liberty
10. Открытое море / Blue Water
11. Плевать на торпеды / Damn the Torpedoes
12. Острие копья / The Pointy End of the Spear
13. Столкновение в управляемом полете / Controlled Flight Into Terrain
Формат : AVI
Формат/Информация : Audio Video Interleave
Размер файла : 589 Мбайт
Продолжительность : 42 м.
Общий поток : 1918 Кбит/сек
Программа кодирования : Nandub v1.0rc2
Библиотека кодирования : Nandub build 1853/release

Видео
Идентификатор : 0
Формат : MPEG-4 Visual
Профиль формата : Simple@L3
Параметр BVOP формата : Нет
Параметр QPel формата : Нет
Параметр GMC формата : Без точки перехода
Параметр матрицы формата : Default (H.263)
Идентификатор кодека : XVID
Идентификатор кодека/Подсказка : XviD
Продолжительность : 42 м.
Битрейт : 1717 Кбит/сек
Ширина : 720 пикс.
Высота : 400 пикс.
Соотношение сторон : 16:9
Частота кадров : 23,976 кадр/сек
Цветовое пространство : YUV
Подвыборка цветности : 4:2:0
Битовая глубина : 8 бит
Тип развёртки : Прогрессивная
Метод сжатия : С потерями
Бит/(Пиксели*Кадры) : 0.249
Размер потока : 527 Мбайт (90%)
Библиотека кодирования : XviD 1.2.1 (UTC 2008-12-04)

Аудио
Идентификатор : 1
Формат : MPEG Audio
Версия формата : Version 1
Профиль формата : Layer 3
Режим : Joint stereo
Идентификатор кодека : 55
Идентификатор кодека/Подсказка : MP3
Продолжительность : 42 м.
Вид битрейта : Переменный
Битрейт : 192 Кбит/сек
Каналы : 2 канала
Частота : 48,0 КГц
Метод сжатия : С потерями
Размер потока : 57,8 Мбайт (10%)
Выравнивание : Соединение по промежуткам
Продолжительность промежутка : 24 мс. (0,58 видеокадр)
Время предзагрузки промежутка : 492 ms
Библиотека кодирования : LAME3.97b
Настройки программы : -m j -V 4 -q 3 -lowpass 18.6 --abr 192


Релиз от:



   Похожие торренты   Торрент   Размер 
В этой теме нет новых непрочитанных сообщений. Крайние меры / Отчаянные меры / Last Resort [S01] (2012) WEB-DLRip 720р | LostFilm

0 | 2

18.86 ГБ

В этой теме нет новых непрочитанных сообщений. Крайние меры / Отчаянные меры / Last Resort [S01] (2012-2013) WEB-DLRip-AVC 720p l LostFilm

9 | 5

13.92 ГБ

В этой теме нет новых непрочитанных сообщений. Крайние меры / Отчаянные меры / Last Resort [01x01-09 из ХХ] (2012) WEB-DLRip-AVC 720p l LostFilm

0 | 2

9.6 ГБ

В этой теме нет новых непрочитанных сообщений. Крайние меры / Отчаянные меры / Last Resort [01x01-10 из ХХ] (2012) WEB-DLRip-AVC 720p l LostFilm

0 | 1

10.68 ГБ

В этой теме нет новых непрочитанных сообщений. Крайние меры / Отчаянные меры / Last Resort [01x01-11 из 13] (2012) WEB-DLRip-AVC 720p l LostFilm

1 | 1

11.76 ГБ

В этой теме нет новых непрочитанных сообщений. Крайние меры / Отчаянные меры / Last Resort [S01] WEB-DLRip l LostFilm

45 | 6

6.35 ГБ

В этой теме нет новых непрочитанных сообщений. Крайние меры / Отчаянные меры / Last Resort [S01] (2012) WEB-DLRip | NewStudio

3 | 2

6.98 ГБ




Вы не можете начинать темы
Вы не можете отвечать на сообщения
Вы не можете редактировать свои сообщения
Вы не можете удалять свои сообщения
Вы не можете добавлять вложения

Перейти:  
Для Мосгорсуда, Роскомнадзора и рекламодателей: mosgorsud-torrent[собачка]yandex.ru
 Вход
ppkBB3cker v.2 © 2008-2014 @ PPK
[ Time : 0.073s | 16 Queries | GZIP : Off ]

Торрент трекер RUTOR.IN, Не можете зайти на rutor.org? Какой новый адрес рутор? Какое зеркало рутор? Не работает rutor.org и зеркала? Тогда наш торрент специально для вас. Rutor.in неофициальное зеркало rutor. В случае если у Вас заблокирован rutor или вдруг Вы не можете на него зайти, то Вы без труда сможете скачать бесплатно и без рекламы последние новинки кино, игр, сериалов и прочего у нас, на Rutor.in. Не нужно использовать прокси, чтобы зайти на рутор, достаточно воспользоваться нашим ресурсом. Все новые фильмы, игры, сериалы, книги и музыка за 2013 и 2014 годы через торрент бесплатно. Скачивайте фильмы в хорошем качестве, игры для пк, xbox, playstation без регистрации. У нас вы найдете новые Зарубежные сериалы и Русские сериалы 2013, 2014, 2015 годов. Оставайтесь с нами, качайте любимые фильмы, игры, сериалы, книги и музыку.
cron