img image001 image001 image001 image001 image001 image001 image001 image001 image001 image001 image001 image001 image001 image001 image001

Planets Sun Sun Sun
Статистика раздачи
Автор: Снежана | Размер: 570.22 МБ | Добавлен: 25 июл 2013
Раздают: 4    Качают: 9
Скачать торрент
Скачать торрент
Описание торрента

СообщениеДобавлено: 25 июл 2013 

Спартак: Война проклятых / Spartacus: War of the Damned



Год выпуска: 2013
Страна: США
Жанр: Боевик, драма, приключения, биография, история
Продолжительность: 00:50:46

Перевод: Профессиональный (многоголосый закадровый) [LostFilm]
Субтитры: Русские, Английские

Режиссёр: Майкл Херст

В ролях: Лиам МакИнтайр, Ману Беннет, Дастин Клер, Дэниэл Фьюрриджел, Тодд Ласанс, Саймон Меррелс, Синтия Аддай-Робинсон, Эллен Холлман и другие.

Описание: К восстанию Спартака присоединились тысячи. Вместе с Криксом и Ганником он побеждает одного римского командира за другим. Отчаявшись, Рим обращается за помощью к богатому, амбициозному Марку Крассу и молодому Юлию Цезарю.



Автор рипа: S.T.A.L.K.E.R.2 (aka Stalker oK)

Сэмпл: http://multi-up.com/823697

Качество: HDTVRip-AVC
Формат: MKV

Видео кодек: AVC
Аудио кодек: MP3

Видео: 1390 Кбит/сек, 720*404 (16:9), в 23,976 кадр/сек, AVC (High@L4.1) (CABAC / 5 Ref Frames)
Аудио: Russian, 178 Кбит/сек, 48,0 КГц, 2 канала(ов), MPEG Audio (MP3)

Общее
Уникальный идентификатор : 198481921143529679027072721833574472576 (0x95523A3FBB8E9D76A7E3A5DCFC8B1B80)
Формат : Matroska
Размер файла : 570 Мбайт
Продолжительность : 50 м.
Общий поток : 1570 Кбит/сек
Название фильма : Spartacus: War of the Damned 2013 (Rip by S.T.A.L.K.E.R.2)
Дата кодирования : UTC 2013-01-28 17:37:51
Программа кодирования : mkvmerge v5.8.0 ('No Sleep / Pillow') built on Sep 2 2012 15:37:04
Библиотека кодирования : libebml v1.2.3 + libmatroska v1.3.0

Видео
Идентификатор : 1
Формат : AVC
Формат/Информация : Advanced Video Codec
Профиль формата : High@L4.1
Параметр CABAC формата : Да
Параметр ReFrames формата : 5 кадры
Идентификатор кодека : V_MPEG4/ISO/AVC
Продолжительность : 50 м.
Битрейт : 1390 Кбит/сек
Ширина : 720 пикс.
Высота : 404 пикс.
Соотношение сторон : 16:9
Частота кадров : 23,976 кадр/сек
Цветовое пространство : YUV
Подвыборка цветности : 4:2:0
Битовая глубина : 8 бит
Тип развёртки : Прогрессивная
Бит/(Пиксели*Кадры) : 0.199
Размер потока : 494 Мбайт (87%)
Библиотека кодирования : x264 core 129 r2230 1cffe9f
Настройки программы : cabac=1 / ref=5 / deblock=1:-1:-1 / analyse=0x3:0x113 / me=tesa / subme=7 / psy=1 / psy_rd=1.00:0.15 / mixed_ref=1 / me_range=32 / chroma_me=1 / trellis=2 / 8x8dct=1 / cqm=0 / deadzone=21,11 / fast_pskip=0 / chroma_qp_offset=-3 / threads=12 / lookahead_threads=2 / sliced_threads=0 / nr=0 / decimate=0 / interlaced=0 / bluray_compat=0 / constrained_intra=0 / bframes=3 / b_pyramid=2 / b_adapt=2 / b_bias=0 / direct=1 / weightb=1 / open_gop=0 / weightp=2 / keyint=240 / keyint_min=23 / scenecut=40 / intra_refresh=0 / rc_lookahead=60 / rc=2pass / mbtree=1 / bitrate=1390 / ratetol=1.0 / qcomp=0.60 / qpmin=10 / qpmax=51 / qpstep=4 / cplxblur=20.0 / qblur=0.5 / vbv_maxrate=50000 / vbv_bufsize=50000 / nal_hrd=none / ip_ratio=1.40 / aq=1:1.00
Язык : English

Аудио
Идентификатор : 2
Формат : MPEG Audio
Версия формата : Version 1
Профиль формата : Layer 3
Режим : Joint stereo
Расширение режима : MS Stereo
Идентификатор кодека : A_MPEG/L3
Идентификатор кодека/Подсказка : MP3
Продолжительность : 50 м.
Вид битрейта : Переменный
Битрейт : 178 Кбит/сек
Канал(ы) : 2 канала(ов)
Частота : 48,0 КГц
Метод сжатия : С потерями
Размер потока : 64,6 Мбайт (11%)
Заголовок : MVO - Lostfilm
Язык : Russian






Расписание серий:
13.04 Сезон 3, серия 10 «Victory»
06.04 Сезон 3, серия 9 «The Dead and the Dying»
23.03 Сезон 3, серия 8 «Seperate Paths»
16.03 Сезон 3, серия 7 «Mors Idecepta»
09.03 Сезон 3, серия 6 «Spoils of War»
02.03 Сезон 3, серия 5 «Blood Brothers»
23.02 Сезон 3, серия 4 «Decimation»
09.02 Сезон 3, серия 3 «Men Of Honor»
02.02 Сезон 3, серия 2 «Wolves At The Gate»
26.01 Сезон 3, серия 1 «Enemies of Rome»



   Похожие торренты   Торрент   Размер 
В этой теме нет новых непрочитанных сообщений. Спартак: Война проклятых / Spartacus: War of the Damned [03х01-09] (2013) HDTV 1080i | LostFilm

13 | 14

40.82 ГБ

В этой теме нет новых непрочитанных сообщений. Спартак: Война проклятых / Spartacus: War of the Damned [03х01-10 из 10] (2013) HDTVRip | Sub

4 | 2

4.42 ГБ

В этой теме нет новых непрочитанных сообщений. Спартак: Война проклятых / Spartacus: War of the Damned [03х01-09 из 10] (2013) HDTVRip | Jaskier

1 | 2

9.71 ГБ

В этой теме нет новых непрочитанных сообщений. Спартак: Война проклятых / Spartacus: War of the Damned [03х01-10 из 10] (2013) HDTVRip 720p | Sub

4 | 5

14.58 ГБ

В этой теме нет новых непрочитанных сообщений. Спартак: Война проклятых / Spartacus: War of the Damned [03х01-09] (2013) HDTVRip 720p | P

0 | 4

14.17 ГБ

В этой теме нет новых непрочитанных сообщений. Спартак: Война проклятых / Spartacus: War of the Damned [S03] (2013) HDTVRip-AVC | LostFilm

58 | 8

8.29 ГБ

В этой теме нет новых непрочитанных сообщений. Спартак: Война проклятых / Spartacus: War of the Damned [S03] (2013) HDTVRip | LostFilm

588 | 46

6.84 ГБ




Вы не можете начинать темы
Вы не можете отвечать на сообщения
Вы не можете редактировать свои сообщения
Вы не можете удалять свои сообщения
Вы не можете добавлять вложения

Перейти:  
Для Мосгорсуда, Роскомнадзора и рекламодателей: mosgorsud-torrent[собачка]yandex.ru
 Вход
ppkBB3cker v.2 © 2008-2014 @ PPK
[ Time : 0.032s | 16 Queries | GZIP : Off ]

Торрент трекер RUTOR.IN, Не можете зайти на rutor.org? Какой новый адрес рутор? Какое зеркало рутор? Не работает rutor.org и зеркала? Тогда наш торрент специально для вас. Rutor.in неофициальное зеркало rutor. В случае если у Вас заблокирован rutor или вдруг Вы не можете на него зайти, то Вы без труда сможете скачать бесплатно и без рекламы последние новинки кино, игр, сериалов и прочего у нас, на Rutor.in. Не нужно использовать прокси, чтобы зайти на рутор, достаточно воспользоваться нашим ресурсом. Все новые фильмы, игры, сериалы, книги и музыка за 2013 и 2014 годы через торрент бесплатно. Скачивайте фильмы в хорошем качестве, игры для пк, xbox, playstation без регистрации. У нас вы найдете новые Зарубежные сериалы и Русские сериалы 2013, 2014, 2015 годов. Оставайтесь с нами, качайте любимые фильмы, игры, сериалы, книги и музыку.