img image001 image001 image001 image001 image001 image001 image001 image001 image001 image001 image001 image001 image001 image001 image001

Planets Sun Sun Sun
Статистика раздачи
Автор: Снежана | Размер: 4.57 ГБ | Добавлен: 25 июл 2013
Раздают: 11    Качают: 4
Скачать торрент
Скачать торрент
Описание торрента

СообщениеДобавлено: 25 июл 2013 

#77

Название: Всемогущие Джонсоны
Оригинальное название: The Almighty Johnsons
Год выпуска: 2010
Страна: Новая Зеландия
Жанр: драма, фантастика
Продолжительность: 10 х ~ 00:45:00
Перевод: Любительский (многоголосый закадровый) - DreamRecords
Субтитры: Нет
Режиссер: Мюррэй Кин, Саймон Беннетт

В ролях: Эмметт Скилтон ,Тимоти Бальм, Дин О’Горман, Джаред Тернер, Бен Баррингтон, Хейден Фрост, Киша Касл-Хьюз, Ферн Сазерленд, Рэйчел Нэш, Ив Гордон

Описание: Новая тихоокеанская комедия-драма о 4 братьях, выросших в Новой Зеландии, которым случилось стать живыми воплощениями норвежских богов. У них даже есть свои божественные суперсилы. Может, правда, их силы не настолько велики. Пока нет, но вскоре все может измениться



Перевод: Julia Anderson
Озвучка: Kenum, Regecat, ИринаЮС, Pro-Snip
Работа со звуком: LeX
Рип видео: LeX



Качество: HDTVRip
Формат: AVI
Видео кодек: XviD
Аудио кодек: МР3
Видео: 720x400, 23.976 fps, 1 294 Kbps, 0.187 bit/pixel
Аудио rus: MP3, 48 kHz, 2 ch, 192 kbps

Добавлена 10-ая серия. Сезон полностью.

01. It's a Kind of a Birthday Present
02. This Is Where Duty Starts
03. God's Gift to Zebras
04. You Gotta Love Life, Baby
05. This Is Not Washing Powder, My Friend
06. Goddesses, Axl, Come In All Forms
07. Bad Things Happen
08. I Can Give You Frigg
09. Hunting Reindeer on Slippery Rocks
10. Every Good Quest Has a Sacrifice
Format : AVI
Format/Info : Audio Video Interleave
File size : 472 MiB
Duration : 44mn 9s
Overall bit rate : 1 495 Kbps
Writing application : VirtualDubModRus 1.5.10.2 (build 2542/release)
Writing library : VirtualDubMod build 2542/release

Video
ID : 0
Format : MPEG-4 Visual
Format profile : Advanced Simple@L5
Format settings, BVOP : 1
Format settings, QPel : No
Format settings, GMC : No warppoints
Format settings, Matrix : Default (MPEG)
Codec ID : XVID
Codec ID/Hint : XviD
Duration : 44mn 9s
Bit rate : 1 294 Kbps
Width : 720 pixels
Height : 400 pixels
Display aspect ratio : 16:9
Frame rate : 23.976 fps
Color space : YUV
Chroma subsampling : 4:2:0
Bit depth : 8 bits
Scan type : Progressive
Compression mode : Lossy
Bits/(Pixel*Frame) : 0.187
Stream size : 409 MiB (87%)
Writing library : XviD 64

Audio
ID : 1
Format : MPEG Audio
Format version : Version 1
Format profile : Layer 3
Mode : Joint stereo
Codec ID : 55
Codec ID/Hint : MP3
Duration : 44mn 9s
Bit rate mode : Constant
Bit rate : 192 Kbps
Channel(s) : 2 channels
Sampling rate : 48.0 KHz
Compression mode : Lossy
Stream size : 60.7 MiB (13%)
Alignment : Aligned on interleaves
Interleave, duration : 42 ms (1.00 video frame)
Interleave, preload duration : 504 ms

Релиз от:



   Похожие торренты   Торрент   Размер 
В этой теме нет новых непрочитанных сообщений. Всемогущие Джонсоны / The Almighty Johnsons [S01] (2010) HDTVRip 720p | DreamRecords

1 | 2

11.11 ГБ

В этой теме нет новых непрочитанных сообщений. Всемогущие Джонсоны / The Almighty Johnsons [S02] (2012) HDTVRip | DreamRecords

8 | 6

6.05 ГБ

В этой теме нет новых непрочитанных сообщений. Всемогущие Джонсоны / The Almighty Johnsons [S01-03] (2011-2012) HDTVRip | DreamRecords

0 | 2

16.59 ГБ

В этой теме нет новых непрочитанных сообщений. Всемогущие Джонсоны / The Almighty Johnsons [S02] (2012) HDTVRip 720p | DreamRecords

3 | 3

15.32 ГБ

В этой теме нет новых непрочитанных сообщений. Всемогущие Джонсоны / The Almighty Johnsons [01-03х01-36 из 36] (2011-2013) WEB-DL 1080p от GeneralFilm

0 | 1

47.51 ГБ

В этой теме нет новых непрочитанных сообщений. Башня Познания / Tower Prep [S01] (2010) HDTVRip | DreamRecords

2 | 2

4.58 ГБ

В этой теме нет новых непрочитанных сообщений. Брюс Всемогущий / Bruce Almighty (2003) HDTVRip 720p от PlanetaUA

35 | 6

4.36 ГБ




Вы не можете начинать темы
Вы не можете отвечать на сообщения
Вы не можете редактировать свои сообщения
Вы не можете удалять свои сообщения
Вы не можете добавлять вложения

Перейти:  
Для Мосгорсуда, Роскомнадзора и рекламодателей: mosgorsud-torrent[собачка]yandex.ru
 Вход
ppkBB3cker v.2 © 2008-2014 @ PPK
[ Time : 6.049s | 14 Queries | GZIP : Off ]

Торрент трекер RUTOR.IN, Не можете зайти на rutor.org? Какой новый адрес рутор? Какое зеркало рутор? Не работает rutor.org и зеркала? Тогда наш торрент специально для вас. Rutor.in неофициальное зеркало rutor. В случае если у Вас заблокирован rutor или вдруг Вы не можете на него зайти, то Вы без труда сможете скачать бесплатно и без рекламы последние новинки кино, игр, сериалов и прочего у нас, на Rutor.in. Не нужно использовать прокси, чтобы зайти на рутор, достаточно воспользоваться нашим ресурсом. Все новые фильмы, игры, сериалы, книги и музыка за 2013 и 2014 годы через торрент бесплатно. Скачивайте фильмы в хорошем качестве, игры для пк, xbox, playstation без регистрации. У нас вы найдете новые Зарубежные сериалы и Русские сериалы 2013, 2014, 2015 годов. Оставайтесь с нами, качайте любимые фильмы, игры, сериалы, книги и музыку.