img image001 image001 image001 image001 image001 image001 image001 image001 image001 image001 image001 image001 image001 image001 image001

Planets Sun Sun Sun
Статистика раздачи
Автор: Снежана | Размер: 88.41 ГБ | Добавлен: 25 июл 2013
Раздают: 0    Качают: 5
Скачать торрент
Скачать торрент
Описание торрента

СообщениеДобавлено: 25 июл 2013 

#77

Информация о фильме
Название: Адмиралъ
Год выхода: 2009
Жанр: Драма, история
Выпущено: Россия / Дирекция Кино
Режиссер: Андрей Кравчук
В ролях: Константин Хабенский, Елизавета Боярская, Анна Ковальчук, Сергей Безруков, Владислав Ветров, Егор Бероев, Ришар Боринже, Олег Фомин, Анатолий Пашинин, Дмитрий Щербина, Александр Клюквин, Виктор Вержбицкий, Федор Бондарчук, Николай Бурляев, Ольга Остроумова, Николай Реутов, Игорь Савочкин, Михаил Елисеев, Александр Ефимов, Александр Баргман, Александр Лазарев мл., Кирилл Плетнев, Александр Яковлев, Александр Воробьев, Ксения Кузнецова, Сергей Власов, Сейдулла Молдаханов, Александр Тютин, Виталий Зикора, Олег Зима, Александр Козляков, Иэн Келли, Стефан Компаньон

О фильме: Фильм, рассказывающий о жизни и любви выдающегося боевого офицера военно-морского флота, полярного исследователя, а затем ставшего адмиралом, верховного правителя России — Александра Васильевича Колчака и Анны Тимиревой. События разворачиваются в период 1916—1920 годов на фоне крушения Российской империи, двух революций и Гражданской войны.

Файлы:
Качество: Blu-ray 1080p
Видео: MPEG-4 AVC, 20.7 Мбит/с, 1920x1080, 23.976 кадр/с
Аудио #1: Русский (DTS-HD MA, 8 ch, 2239 Кбит/с)
Аудио #2: Русский (АС3, 6 ch, 448 Кбит/с)
Продолжительность: 10 x ~ 00:50:00

4 кинопремии «Золотой орел» и Кинонаграды «MTV-Россия», 2009г. включая Лучший фильм
Лучшую мужская роль Константин Хабенский
Лучшую женская роль Елизавета Боярская

Disc Title: ADMIRAL1_SER
Disc Size: 47 533 105 762 bytes
Protection: AACS
BD-Java: No
BDInfo: 0.5.6

********************
PLAYLIST: 00002.MPLS
********************
Total Video
Title Codec Length Movie Size Disc Size Bitrate Bitrate Main Audio Track Secondary Audio Track
----- ------ ------- -------------- -------------- ------- ------- ------------------ ---------------------
00002.MPLS AVC 4:13:36 47 296 382 976 47 533 105 762 24,87 20,73 DTS-HD Master 7.1 2339Kbps (48kHz/16-bit) DD AC3 5.1 448Kbps
DISC INFO:

Disc Title: ADMIRAL1_SER
Disc Size: 47 533 105 762 bytes
Protection: AACS
BD-Java: No
BDInfo: 0.5.6

PLAYLIST REPORT:

Name: 00002.MPLS
Length: 4:13:36 (h:m:s)
Size: 47 296 382 976 bytes
Total Bitrate: 24,87 Mbps

VIDEO:

Codec Bitrate Deion
----- ------- -----------
MPEG-4 AVC Video 20731 kbps 1080p / 23,976 fps / 16:9 / High Profile 4.1

AUDIO:

Codec Language Bitrate Deion
----- -------- ------- -----------
DTS-HD Master Audio Russian 2339 kbps 7.1 / 48 kHz / 2339 kbps / 16-bit (DTS Core: 5.1 / 48 kHz / 1509 kbps / 16-bit)
Dolby Digital Audio Russian 448 kbps 5.1 / 48 kHz / 448 kbps

FILES:

Name Time In Length Size Total Bitrate
---- ------- ------ ---- -------------
00005.M2TS 0:00:00.000 0:48:48.926 8 740 644 864 23 874
00006.M2TS 0:48:48.926 0:52:30.021 9 899 784 192 25 142
00007.M2TS 1:41:18.947 0:51:42.099 9 733 902 336 25 103
00008.M2TS 2:33:01.046 0:49:58.578 8 967 536 640 23 925
00009.M2TS 3:22:59.625 0:50:36.783 9 954 514 944 26 224

CHAPTERS:

Number Time In Length Avg Video Rate Max 1-Sec Rate Max 1-Sec Time Max 5-Sec Rate Max 5-Sec Time Max 10Sec Rate Max 10Sec Time Avg Frame Size Max Frame Size Max Frame Time
------ ------- ------ -------------- -------------- -------------- -------------- -------------- -------------- -------------- -------------- -------------- --------------
1 0:00:00.000 0:05:43.468 18 292 kbps 51 648 kbps 00:05:21.279 45 107 kbps 00:05:20.486 38 043 kbps 00:05:17.442 95 354 bytes 392 732 bytes 00:05:21.446
2 0:05:43.468 0:08:58.955 16 722 kbps 41 608 kbps 00:12:39.925 31 442 kbps 00:12:06.350 28 949 kbps 00:12:01.595 87 181 bytes 425 203 bytes 00:06:55.206
3 0:14:42.423 0:08:03.691 16 901 kbps 43 825 kbps 00:21:42.384 33 058 kbps 00:16:18.936 25 701 kbps 00:16:13.931 88 112 bytes 370 999 bytes 00:16:35.327
4 0:22:46.114 0:07:35.329 24 633 kbps 43 698 kbps 00:25:04.336 34 618 kbps 00:26:01.393 33 519 kbps 00:24:44.983 128 424 bytes 381 508 bytes 00:25:43.083
5 0:30:21.444 0:10:33.549 24 385 kbps 48 360 kbps 00:32:15.058 45 158 kbps 00:32:13.056 39 876 kbps 00:32:11.137 127 133 bytes 346 105 bytes 00:32:19.520
6 0:40:54.994 0:07:03.923 17 231 kbps 45 743 kbps 00:42:23.749 34 730 kbps 00:42:41.392 31 751 kbps 00:42:42.142 89 835 bytes 359 792 bytes 00:45:12.000
7 0:47:58.917 0:00:50.008 7 864 kbps 19 308 kbps 00:48:47.466 9 812 kbps 00:48:43.462 8 863 kbps 00:48:38.457 41 002 bytes 291 899 bytes 00:48:43.211
8 0:48:48.926 0:03:07.228 18 837 kbps 50 557 kbps 00:51:35.801 43 413 kbps 00:51:33.757 35 747 kbps 00:51:29.086 98 209 bytes 366 307 bytes 00:51:23.872
9 0:51:56.154 0:08:08.279 19 922 kbps 34 658 kbps 00:52:20.679 30 184 kbps 00:52:20.387 28 868 kbps 00:52:18.593 103 863 bytes 365 518 bytes 00:58:57.200
10 1:00:04.434 0:05:38.212 23 838 kbps 41 764 kbps 01:04:24.694 35 602 kbps 01:04:22.900 33 869 kbps 01:04:23.067 124 281 bytes 386 299 bytes 01:03:44.153
11 1:05:42.647 0:12:26.746 21 897 kbps 41 959 kbps 01:10:22.176 36 297 kbps 01:10:38.567 30 847 kbps 01:10:38.817 114 162 bytes 394 880 bytes 01:09:35.671
12 1:18:09.393 0:10:08.941 19 158 kbps 35 559 kbps 01:26:49.329 28 537 kbps 01:27:06.679 27 647 kbps 01:27:59.232 99 883 bytes 378 207 bytes 01:25:31.876
13 1:28:18.334 0:12:11.605 22 367 kbps 36 830 kbps 01:33:11.669 32 629 kbps 01:34:15.316 30 317 kbps 01:34:10.853 116 613 bytes 356 420 bytes 01:36:21.942
14 1:40:29.940 0:00:49.007 9 098 kbps 16 902 kbps 01:41:17.446 10 501 kbps 01:41:13.358 9 727 kbps 01:41:08.187 47 434 bytes 443 238 bytes 01:40:32.943
15 1:41:18.947 0:04:19.425 20 753 kbps 50 774 kbps 01:45:18.770 44 800 kbps 01:45:16.560 37 183 kbps 01:45:12.055 108 196 bytes 426 485 bytes 01:43:21.862
16 1:45:38.373 0:07:08.803 20 701 kbps 32 891 kbps 01:48:46.019 26 099 kbps 01:50:44.721 24 463 kbps 01:50:40.842 107 927 bytes 345 728 bytes 01:46:17.162
17 1:52:47.177 0:08:18.331 20 144 kbps 40 475 kbps 02:00:08.284 34 972 kbps 01:54:37.662 30 377 kbps 01:54:39.497 105 023 bytes 398 275 bytes 01:59:45.386
18 2:01:05.508 0:09:04.502 21 639 kbps 37 316 kbps 02:04:50.608 32 954 kbps 02:02:09.655 30 525 kbps 02:02:09.947 112 817 bytes 379 126 bytes 02:01:56.642
19 2:10:10.010 0:08:13.784 20 917 kbps 48 510 kbps 02:11:37.055 35 998 kbps 02:11:26.253 32 327 kbps 02:11:28.171 109 049 bytes 367 490 bytes 02:11:00.352
20 2:18:23.795 0:13:46.825 22 126 kbps 40 806 kbps 02:26:16.309 36 265 kbps 02:26:15.016 30 556 kbps 02:24:22.362 115 357 bytes 310 669 bytes 02:21:27.937
21 2:32:10.621 0:00:50.425 8 598 kbps 18 089 kbps 02:32:59.378 10 782 kbps 02:32:10.871 9 600 kbps 02:32:10.621 44 824 bytes 485 484 bytes 02:32:15.125
22 2:33:01.046 0:06:10.703 20 057 kbps 50 126 kbps 02:38:49.770 45 046 kbps 02:38:49.019 37 570 kbps 02:38:45.307 104 567 bytes 393 393 bytes 02:38:51.480
23 2:39:11.750 0:08:26.255 16 654 kbps 45 350 kbps 02:43:08.695 35 295 kbps 02:43:07.194 31 177 kbps 02:42:29.906 86 826 bytes 329 386 bytes 02:42:35.996
24 2:47:38.006 0:07:18.813 18 638 kbps 38 554 kbps 02:50:26.841 33 514 kbps 02:51:46.796 32 271 kbps 02:51:42.250 97 170 bytes 409 416 bytes 02:51:46.838
25 2:54:56.819 0:08:53.407 20 851 kbps 43 411 kbps 03:02:14.548 36 988 kbps 02:59:54.200 34 186 kbps 02:59:48.736 108 705 bytes 366 429 bytes 03:02:40.908
26 3:03:50.227 0:08:15.077 21 532 kbps 41 373 kbps 03:05:21.944 30 685 kbps 03:05:41.338 29 534 kbps 03:05:38.627 112 259 bytes 362 933 bytes 03:05:43.715
27 3:12:05.305 0:10:07.148 21 829 kbps 47 464 kbps 03:15:32.429 34 463 kbps 03:12:40.298 30 419 kbps 03:12:39.714 113 807 bytes 445 934 bytes 03:16:17.515
28 3:22:12.453 0:00:47.172 10 008 kbps 20 543 kbps 03:22:57.999 11 902 kbps 03:22:53.703 10 912 kbps 03:22:48.990 52 177 bytes 274 017 bytes 03:22:13.955
29 3:22:59.625 0:04:43.282 20 779 kbps 50 893 kbps 03:26:45.226 44 872 kbps 03:27:21.095 37 594 kbps 03:27:16.590 108 331 bytes 392 383 bytes 03:27:12.128
30 3:27:42.908 0:08:33.804 22 104 kbps 37 061 kbps 03:34:13.840 29 458 kbps 03:27:50.666 27 040 kbps 03:27:50.791 115 239 bytes 424 765 bytes 03:30:32.911
31 3:36:16.713 0:05:57.648 21 323 kbps 40 088 kbps 03:41:10.548 36 699 kbps 03:41:08.964 29 060 kbps 03:41:06.670 111 168 bytes 377 153 bytes 03:39:09.761
32 3:42:14.362 0:08:58.788 21 896 kbps 38 241 kbps 03:43:58.800 33 022 kbps 03:42:38.094 29 888 kbps 03:42:23.455 114 155 bytes 325 098 bytes 03:42:33.423
33 3:51:13.150 0:09:53.217 22 544 kbps 39 352 kbps 04:01:04.074 35 009 kbps 03:57:30.694 31 348 kbps 03:57:26.774 117 534 bytes 318 346 bytes 03:57:27.358
34 4:01:06.368 0:11:37.571 23 065 kbps 43 546 kbps 04:08:24.431 40 485 kbps 04:08:21.177 32 346 kbps 04:08:16.923 120 248 bytes 336 573 bytes 04:02:58.605
35 4:12:43.940 0:00:52.469 12 565 kbps 26 483 kbps 04:12:44.566 19 273 kbps 04:12:43.940 16 009 kbps 04:12:43.940 65 562 bytes 307 611 bytes 04:12:45.441

STREAM DIAGNOSTICS:

File PID Type Codec Language Seconds Bitrate Bytes Packets
---- --- ---- ----- -------- -------------- -------------- ------------- -----
00005.M2TS 4113 (0x1011) 0x1B AVC 2928,801 19 746 7 229 108 563 39 329 836
00005.M2TS 4352 (0x1100) 0x86 DTS-HD MA rus (Russian) 2928,801 2 375 869 401 504 5 180 919
00005.M2TS 4353 (0x1101) 0x81 AC3 rus (Russian) 2928,801 448 164 019 968 915 290
00006.M2TS 4113 (0x1011) 0x1B AVC 3149,938 20 999 8 268 074 983 44 979 463
00006.M2TS 4352 (0x1100) 0x86 DTS-HD MA rus (Russian) 3149,938 2 337 920 198 432 5 491 963
00006.M2TS 4353 (0x1101) 0x81 AC3 rus (Russian) 3149,938 448 176 400 896 984 380
00007.M2TS 4113 (0x1011) 0x1B AVC 3101,974 20 999 8 142 272 761 44 294 942
00007.M2TS 4352 (0x1100) 0x86 DTS-HD MA rus (Russian) 3101,974 2 300 891 709 700 5 329 110
00007.M2TS 4353 (0x1101) 0x81 AC3 rus (Russian) 3101,974 448 173 718 272 969 410
00008.M2TS 4113 (0x1011) 0x1B AVC 2998,496 19 861 7 444 056 307 40 498 773
00008.M2TS 4352 (0x1100) 0x86 DTS-HD MA rus (Russian) 2998,496 2 308 865 131 288 5 169 605
00008.M2TS 4353 (0x1101) 0x81 AC3 rus (Russian) 2998,496 448 167 921 152 937 060
00009.M2TS 4113 (0x1011) 0x1B AVC 3036,617 21 994 8 348 582 550 45 415 380
00009.M2TS 4352 (0x1100) 0x86 DTS-HD MA rus (Russian) 3036,617 2 379 902 913 248 5 380 305
00009.M2TS 4353 (0x1101) 0x81 AC3 rus (Russian) 3036,617 448 170 059 008 948 990
QUICK SUMMARY:

Disc Title: ADMIRAL1_SER
Disc Size: 47 533 105 762 bytes
Protection: AACS
BD-Java: No
Playlist: 00002.MPLS
Size: 47 296 382 976 bytes
Length: 4:13:36
Total Bitrate: 24,87 Mbps
Video: MPEG-4 AVC Video / 20731 kbps / 1080p / 23,976 fps / 16:9 / High Profile 4.1
Audio: Russian / DTS-HD Master Audio / 7.1 / 48 kHz / 2339 kbps / 16-bit (DTS Core: 5.1 / 48 kHz / 1509 kbps / 16-bit)
Audio: Russian / Dolby Digital Audio / 5.1 / 48 kHz / 448 kbps
Disc Title: ADMIRAL2_SER
Disc Size: 47 398 872 178 bytes
Protection: AACS
BD-Java: No
BDInfo: 0.5.6

Notes:

BDINFO HOME:
Cinema Squid
http://www.cinemasquid.com/blu-ray/tools/bdinfo

INCLUDES FORUMS REPORT FOR:
AVS Forum Blu-ray Audio and Video Specifications Thread
http://www.avsforum.com/avs-vb/showthread.php?t=1155731
********************
PLAYLIST: 00002.MPLS
********************
Total Video
Title Codec Length Movie Size Disc Size Bitrate Bitrate Main Audio Track Secondary Audio Track
----- ------ ------- -------------- -------------- ------- ------- ------------------ ---------------------
00002.MPLS AVC 4:15:58 47 186 239 488 47 398 872 178 24,58 20,39 DTS-HD Master 7.1 2407Kbps (48kHz/16-bit) DD AC3 5.1 448Kbps
DISC INFO:

Disc Title: ADMIRAL2_SER
Disc Size: 47 398 872 178 bytes
Protection: AACS
BD-Java: No
BDInfo: 0.5.6

PLAYLIST REPORT:

Name: 00002.MPLS
Length: 4:15:58 (h:m:s)
Size: 47 186 239 488 bytes
Total Bitrate: 24,58 Mbps

VIDEO:

Codec Bitrate Deion
----- ------- -----------
MPEG-4 AVC Video 20388 kbps 1080p / 23,976 fps / 16:9 / High Profile 4.1

AUDIO:

Codec Language Bitrate Deion
----- -------- ------- -----------
DTS-HD Master Audio Russian 2407 kbps 7.1 / 48 kHz / 2407 kbps / 16-bit (DTS Core: 5.1 / 48 kHz / 1509 kbps / 16-bit)
Dolby Digital Audio Russian 448 kbps 5.1 / 48 kHz / 448 kbps

FILES:

Name Time In Length Size Total Bitrate
---- ------- ------ ---- -------------
00005.M2TS 0:00:00.000 0:49:11.949 9 291 356 160 25 180
00006.M2TS 0:49:11.949 0:50:39.036 9 571 172 352 25 195
00007.M2TS 1:39:50.985 0:50:07.004 9 112 068 096 24 242
00008.M2TS 2:29:57.989 0:50:52.299 9 212 233 728 24 145
00009.M2TS 3:20:50.288 0:55:07.762 9 999 409 152 24 184

CHAPTERS:

Number Time In Length Avg Video Rate Max 1-Sec Rate Max 1-Sec Time Max 5-Sec Rate Max 5-Sec Time Max 10Sec Rate Max 10Sec Time Avg Frame Size Max Frame Size Max Frame Time
------ ------- ------ -------------- -------------- -------------- -------------- -------------- -------------- -------------- -------------- -------------- --------------
1 0:00:00.000 0:04:32.772 20 419 kbps 49 943 kbps 00:04:13.127 44 112 kbps 00:04:10.959 36 698 kbps 00:04:06.454 106 439 bytes 381 060 bytes 00:04:07.246
2 0:04:32.772 0:06:06.657 21 170 kbps 34 684 kbps 00:06:44.987 27 949 kbps 00:08:37.475 26 722 kbps 00:06:44.529 110 372 bytes 370 294 bytes 00:08:39.977
3 0:10:39.430 0:07:48.718 21 549 kbps 37 335 kbps 00:16:03.545 32 753 kbps 00:17:26.044 31 360 kbps 00:17:25.461 112 344 bytes 323 177 bytes 00:17:22.332
4 0:18:28.148 0:11:52.753 21 386 kbps 39 047 kbps 00:28:10.772 32 071 kbps 00:27:21.306 30 709 kbps 00:27:16.259 111 495 bytes 350 037 bytes 00:23:39.334
5 0:30:20.902 0:08:04.108 20 504 kbps 34 887 kbps 00:36:09.458 29 974 kbps 00:31:28.636 26 985 kbps 00:32:15.016 106 896 bytes 357 267 bytes 00:34:24.395
6 0:38:25.011 0:09:52.925 21 776 kbps 37 285 kbps 00:44:01.138 35 377 kbps 00:43:57.134 33 834 kbps 00:43:56.258 113 528 bytes 369 399 bytes 00:39:07.678
7 0:48:17.936 0:00:54.012 8 764 kbps 16 920 kbps 00:49:10.238 10 070 kbps 00:49:05.942 9 595 kbps 00:48:18.437 45 690 bytes 396 688 bytes 00:48:24.693
8 0:49:11.949 0:04:33.314 20 924 kbps 51 044 kbps 00:52:47.581 44 716 kbps 00:53:23.450 37 190 kbps 00:53:18.945 109 090 bytes 380 605 bytes 00:53:23.491
9 0:53:45.263 0:09:35.366 21 497 kbps 40 902 kbps 00:56:21.628 35 098 kbps 00:56:20.835 32 406 kbps 00:56:14.913 112 074 bytes 329 855 bytes 00:55:42.922
10 1:03:20.630 0:06:16.626 23 610 kbps 42 046 kbps 01:04:10.054 33 172 kbps 01:04:06.133 31 548 kbps 01:07:51.942 123 094 bytes 398 254 bytes 01:06:58.139
11 1:09:37.256 0:09:29.527 20 721 kbps 42 134 kbps 01:10:16.795 28 095 kbps 01:10:15.794 27 558 kbps 01:10:16.378 108 031 bytes 318 896 bytes 01:16:33.505
12 1:19:06.783 0:09:11.384 18 822 kbps 38 195 kbps 01:21:58.455 29 384 kbps 01:19:22.883 26 290 kbps 01:19:22.674 98 127 bytes 358 080 bytes 01:19:24.301
13 1:28:18.167 0:10:39.221 21 847 kbps 45 088 kbps 01:37:50.072 40 260 kbps 01:37:46.068 37 996 kbps 01:37:42.106 113 899 bytes 371 999 bytes 01:37:04.568
14 1:38:57.389 0:00:53.595 12 893 kbps 21 462 kbps 01:39:48.399 16 191 kbps 01:38:57.973 14 319 kbps 01:38:57.389 67 219 bytes 359 984 bytes 01:39:03.395
15 1:39:50.985 0:08:02.857 20 793 kbps 51 044 kbps 01:46:55.409 44 655 kbps 01:47:31.278 37 424 kbps 01:47:26.773 108 407 bytes 382 707 bytes 01:47:27.566
16 1:47:53.842 0:09:21.852 20 213 kbps 39 755 kbps 01:56:21.557 34 667 kbps 01:52:59.689 32 027 kbps 01:52:58.480 105 379 bytes 336 365 bytes 01:56:23.476
17 1:57:15.695 0:06:52.120 20 837 kbps 40 545 kbps 02:02:20.249 32 262 kbps 02:01:55.558 30 055 kbps 02:02:12.783 108 635 bytes 348 431 bytes 02:01:58.519
18 2:04:07.815 0:06:30.556 20 222 kbps 33 144 kbps 02:07:42.071 27 065 kbps 02:09:15.748 25 252 kbps 02:09:10.951 105 429 bytes 291 561 bytes 02:07:20.883
19 2:10:38.372 0:09:39.120 20 137 kbps 38 500 kbps 02:17:01.796 28 852 kbps 02:17:01.546 27 514 kbps 02:17:10.680 104 986 bytes 411 973 bytes 02:14:11.418
20 2:20:17.492 0:08:43.856 18 963 kbps 39 158 kbps 02:27:31.759 32 796 kbps 02:22:39.759 25 629 kbps 02:22:39.842 98 867 bytes 330 797 bytes 02:28:46.334
21 2:29:01.349 0:00:56.639 11 599 kbps 21 826 kbps 02:29:55.903 15 495 kbps 02:29:02.475 14 520 kbps 02:29:01.849 60 474 bytes 433 498 bytes 02:29:10.358
22 2:29:57.989 0:05:11.352 21 274 kbps 51 044 kbps 02:34:11.659 44 543 kbps 02:34:47.278 37 292 kbps 02:34:43.023 110 911 bytes 365 774 bytes 02:34:11.700
23 2:35:09.341 0:08:16.829 20 363 kbps 39 691 kbps 02:41:26.510 32 018 kbps 02:41:07.449 29 376 kbps 02:41:06.740 106 165 bytes 373 125 bytes 02:41:34.017
24 2:43:26.171 0:08:28.799 19 720 kbps 34 857 kbps 02:44:14.386 28 066 kbps 02:45:29.169 26 479 kbps 02:45:24.164 102 809 bytes 359 982 bytes 02:48:37.774
25 2:51:54.971 0:06:50.743 18 989 kbps 37 762 kbps 02:52:04.522 26 790 kbps 02:52:04.439 24 365 kbps 02:53:33.945 98 998 bytes 329 578 bytes 02:58:19.897
26 2:58:45.715 0:10:06.147 21 000 kbps 34 758 kbps 03:00:18.015 28 493 kbps 03:00:16.680 28 005 kbps 03:01:42.892 109 482 bytes 317 840 bytes 03:00:16.722
27 3:08:51.862 0:11:08.876 20 052 kbps 37 893 kbps 03:09:39.034 28 638 kbps 03:19:36.172 26 313 kbps 03:09:35.864 104 540 bytes 370 378 bytes 03:19:58.486
28 3:20:00.738 0:00:49.549 6 577 kbps 16 333 kbps 03:20:48.536 8 271 kbps 03:20:44.240 7 407 kbps 03:20:39.527 34 288 bytes 427 668 bytes 03:20:02.991
29 3:20:50.288 0:03:32.921 20 630 kbps 50 945 kbps 03:23:25.526 44 865 kbps 03:24:01.395 37 575 kbps 03:23:56.891 107 556 bytes 438 285 bytes 03:22:13.830
30 3:24:23.209 0:08:48.236 21 163 kbps 42 614 kbps 03:24:38.766 38 409 kbps 03:27:19.301 34 144 kbps 03:27:40.239 110 335 bytes 391 530 bytes 03:24:26.212
31 3:33:11.445 0:10:11.569 20 481 kbps 40 215 kbps 03:35:33.295 34 224 kbps 03:35:32.544 29 618 kbps 03:39:23.984 106 777 bytes 354 296 bytes 03:39:27.863
32 3:43:23.014 0:08:25.379 20 608 kbps 38 616 kbps 03:51:22.910 30 983 kbps 03:51:19.365 29 605 kbps 03:51:19.448 107 441 bytes 342 041 bytes 03:43:26.518
33 3:51:48.394 0:12:08.727 20 714 kbps 38 135 kbps 04:02:43.590 32 137 kbps 03:54:28.929 27 514 kbps 04:03:37.978 107 996 bytes 408 751 bytes 04:03:22.796
34 4:03:57.122 0:06:31.265 20 406 kbps 37 774 kbps 04:09:31.873 29 346 kbps 04:09:28.286 25 090 kbps 04:09:28.370 106 386 bytes 351 599 bytes 04:10:13.248
35 4:10:28.388 0:05:29.662 13 828 kbps 39 681 kbps 04:14:44.602 30 585 kbps 04:14:07.398 27 343 kbps 04:14:09.651 72 103 bytes 384 789 bytes 04:15:51.461

STREAM DIAGNOSTICS:

File PID Type Codec Language Seconds Bitrate Bytes Packets
---- --- ---- ----- -------- -------------- -------------- ------------- -----
00005.M2TS 4113 (0x1011) 0x1B AVC 2951,782 20 999 7 748 185 693 42 151 284
00005.M2TS 4352 (0x1100) 0x86 DTS-HD MA rus (Russian) 2951,782 2 373 875 726 580 5 219 777
00005.M2TS 4353 (0x1101) 0x81 AC3 rus (Russian) 2951,782 448 165 308 416 922 480
00006.M2TS 4113 (0x1011) 0x1B AVC 3038,869 21 000 7 976 862 233 43 395 134
00006.M2TS 4352 (0x1100) 0x86 DTS-HD MA rus (Russian) 3038,869 2 387 906 875 960 5 403 185
00006.M2TS 4353 (0x1101) 0x81 AC3 rus (Russian) 3038,869 448 170 186 240 949 700
00007.M2TS 4113 (0x1011) 0x1B AVC 3006,921 19 999 7 516 868 373 40 894 600
00007.M2TS 4352 (0x1100) 0x86 DTS-HD MA rus (Russian) 3006,921 2 474 929 950 868 5 523 626
00007.M2TS 4353 (0x1101) 0x81 AC3 rus (Russian) 3006,921 448 168 392 448 939 690
00008.M2TS 4113 (0x1011) 0x1B AVC 3052,174 19 999 7 630 040 872 41 510 333
00008.M2TS 4352 (0x1100) 0x86 DTS-HD MA rus (Russian) 3052,174 2 381 908 584 880 5 413 928
00008.M2TS 4353 (0x1101) 0x81 AC3 rus (Russian) 3052,174 448 170 928 128 953 840
00009.M2TS 4113 (0x1011) 0x1B AVC 3307,679 19 999 8 268 743 852 44 985 119
00009.M2TS 4352 (0x1100) 0x86 DTS-HD MA rus (Russian) 3307,679 2 419 999 966 392 5 950 615
00009.M2TS 4353 (0x1101) 0x81 AC3 rus (Russian) 3307,679 448 185 235 456 1 033 680
QUICK SUMMARY:

Disc Title: ADMIRAL2_SER
Disc Size: 47 398 872 178 bytes
Protection: AACS
BD-Java: No
Playlist: 00002.MPLS
Size: 47 186 239 488 bytes
Length: 4:15:58
Total Bitrate: 24,58 Mbps
Video: MPEG-4 AVC Video / 20388 kbps / 1080p / 23,976 fps / 16:9 / High Profile 4.1
Audio: Russian / DTS-HD Master Audio / 7.1 / 48 kHz / 2407 kbps / 16-bit (DTS Core: 5.1 / 48 kHz / 1509 kbps / 16-bit)
Audio: Russian / Dolby Digital Audio / 5.1 / 48 kHz / 448 kbps





Релиз:



   Похожие торренты   Торрент   Размер 
В этой теме нет новых непрочитанных сообщений. Адмиралъ (10 серий из 10) (2009) DVDRip

15 | 11

6.82 ГБ

В этой теме нет новых непрочитанных сообщений. Адмиралъ (2008) BDRip 1080p от R.G. HD-Films | 60 fps

39 | 22

14.48 ГБ

В этой теме нет новых непрочитанных сообщений. Адмиралъ (2008) BDRip 1080p от FreeHD

7 | 7

11.99 ГБ

В этой теме нет новых непрочитанных сообщений. Адмиралъ / Admiral (2008) BDRip 1080p от Neofilm

83 | 8

4.37 ГБ

В этой теме нет новых непрочитанных сообщений. Адмиралъ (2008) DVDRip

296 | 594

1.37 ГБ

В этой теме нет новых непрочитанных сообщений. Адмиралъ [01-10 из 10] (2008) BDRip-AVC

234 | 114

14.09 ГБ

В этой теме нет новых непрочитанных сообщений. Адмиралъ (2008) BDRip 720p

1016 | 30

4.37 ГБ




Вы не можете начинать темы
Вы не можете отвечать на сообщения
Вы не можете редактировать свои сообщения
Вы не можете удалять свои сообщения
Вы не можете добавлять вложения

Перейти:  
Для Мосгорсуда, Роскомнадзора и рекламодателей: mosgorsud-torrent[собачка]yandex.ru
 Вход
ppkBB3cker v.2 © 2008-2014 @ PPK
[ Time : 0.032s | 15 Queries | GZIP : On ]

Торрент трекер RUTOR.IN, Не можете зайти на rutor.org? Какой новый адрес рутор? Какое зеркало рутор? Не работает rutor.org и зеркала? Тогда наш торрент специально для вас. Rutor.in неофициальное зеркало rutor. В случае если у Вас заблокирован rutor или вдруг Вы не можете на него зайти, то Вы без труда сможете скачать бесплатно и без рекламы последние новинки кино, игр, сериалов и прочего у нас, на Rutor.in. Не нужно использовать прокси, чтобы зайти на рутор, достаточно воспользоваться нашим ресурсом. Все новые фильмы, игры, сериалы, книги и музыка за 2013 и 2014 годы через торрент бесплатно. Скачивайте фильмы в хорошем качестве, игры для пк, xbox, playstation без регистрации. У нас вы найдете новые Зарубежные сериалы и Русские сериалы 2013, 2014, 2015 годов. Оставайтесь с нами, качайте любимые фильмы, игры, сериалы, книги и музыку.