img image001 image001 image001 image001 image001 image001 image001 image001 image001 image001 image001 image001 image001 image001 image001

Planets Sun Sun Sun
Статистика раздачи
Автор: Снежана | Размер: 14.87 ГБ | Добавлен: 25 июл 2013
Раздают: 16    Качают: 5
Скачать торрент
Скачать торрент
Описание торрента

СообщениеДобавлено: 25 июл 2013 

#77

Информация о фильме
Название: Друзья
Оригинальное название: Friends
Год выхода: 1995-1996
Жанр: Sitcom
Режиссер: David Crane, Marta Kauffman
В ролях: Jennifer Aniston, Courteney Cox Arquette, Lisa Kudrow, Matt LeBlanc, Matthew Perry, David Schwimmer

О фильме:
Главные герои — шестеро друзей — Рейчел, Моника, Фиби, Джоуи, Чендлер и Росс. Три девушки и три парня, которые дружат, живут по соседству, вместе убивают время и противостоят жестокой реальности, делятся своими секретами и иногда очень сильно влюбляются.

Сериал признан одним из лучших комедийных сериалов в истории американского телевидения и стал одним из наиболее заметных проектов 1990-х годов. Сама постановка и творческая группа получили множество наград, в том числе шесть премий «Эмми» и премию «Золотой глобус».

Страна: США
Студия: Канал NBC
Продолжительность: 24 x ∼23мин

Файл
Формат: m4v
Кодек: H.264
Качество: BDRip-AVC
Видео: 1024x576 (16:9), ∼3250kbps, 23,976fps
Звук: AAC, 2 channels, 48.0 KHz, 160kbps VBR
Аудио 1: Русский - профессиональный многоголосый закадровый
Аудио 2: Украинский - профессиональный многоголосый закадровый
Аудио 3: Английский - оригинал
Аудио 4: Французский - дублированный
Субтитры: Английские, французские, испанские, португальские, датские, финские, норвежские, шведские, нидерландские
Метатэги: Прописаны
Навигация по главам: есть

Раздача будет полезна пользователям iOS и OS X платформ.
При просмотре на Windows рекомендую пользоваться iTunes или VLC media player.


1 серия

x264 [info]: frame I:399 Avg QP:16.25 size:105629 PSNR Mean Y:47.35 U:51.29 V:51.91 Avg:48.33 Global:47.50
x264 [info]: frame P:6554 Avg QP:18.80 size: 37561 PSNR Mean Y:45.61 U:50.53 V:50.93 Avg:46.58 Global:45.15
x264 [info]: frame B:24993 Avg QP:21.87 size: 10451 PSNR Mean Y:42.14 U:49.07 V:49.51 Avg:43.48 Global:43.15
x264 [info]: consecutive B-frames: 2.4% 0.6% 3.3% 21.3% 21.3% 45.4% 5.7%
x264 [info]: mb I I16..4: 5.8% 69.3% 25.0%
x264 [info]: mb P I16..4: 0.9% 9.4% 2.9% P16..4: 34.4% 29.4% 16.5% 0.0% 0.0% skip: 6.4%
x264 [info]: mb B I16..4: 0.1% 1.0% 0.3% B16..8: 41.3% 10.8% 3.2% direct: 6.8% skip:36.6% L0:41.7% L1:45.0% BI:13.3%
x264 [info]: 8x8 transform intra:71.5% inter:56.1%
x264 [info]: coded y,uvDC,uvAC intra: 93.5% 79.6% 51.0% inter: 33.1% 20.2% 1.5%
x264 [info]: i16 v,h,dc,p: 43% 14% 9% 33%
x264 [info]: i8 v,h,dc,ddl,ddr,vr,hd,vl,hu: 11% 8% 4% 9% 15% 15% 14% 12% 12%
x264 [info]: i4 v,h,dc,ddl,ddr,vr,hd,vl,hu: 9% 7% 2% 9% 15% 15% 15% 13% 14%
x264 [info]: i8c dc,h,v,p: 37% 24% 24% 15%
x264 [info]: Weighted P-Frames: Y:1.9% UV:1.3%
x264 [info]: ref P L0: 46.9% 10.8% 16.8% 7.9% 5.9% 4.4% 3.5% 2.1% 1.5% 0.0% 0.0%
x264 [info]: ref B L0: 79.5% 11.5% 3.9% 2.0% 1.3% 1.0% 0.5% 0.2%
x264 [info]: ref B L1: 95.3% 4.7%
x264 [info]: SSIM Mean Y:0.9758619 (16.173db)
x264 [info]: PSNR Mean Y:42.913 U:49.399 V:49.828 Avg:44.179 Global:43.530 kb/s:3299.40

General
Format : MPEG-4
Codec ID : M4V
File size : 628 MiB
Duration : 22mn 13s
Overall bit rate mode : Variable
Overall bit rate : 3 952 Kbps
Movie name : The One With Ross's New Girlfriend
Part/Position : 2
Track name/Position : 1
Track name/Total : 24
Performer : Friends
Genre : Sitcom
Recorded date : 1995-09-21
Encoded date : UTC 2013-01-31 17:09:17
Tagged date : UTC 2013-01-31 17:13:47
Cover : Yes
tvsh : Friends
tven : 457301
tvsn : 2
tves : 1
sosn : Friends
desc : Rachel waits patiently at the airport for Ross, not knowing he is returning with a new girlfriend, Julie. Meanwhile, after giving Joey and Chandler new haircuts, Phoebe is persuaded to cut Monica's hair, but gives her an awful haircut. And Joey learns that his tailor is a very naughty man.
ldes : Rachel waits patiently at the airport for Ross, not knowing he is returning with a new girlfriend, Julie. Meanwhile, after giving Joey and Chandler new haircuts, Phoebe is persuaded to cut Monica's hair, but gives her an awful haircut. And Joey learns that his tailor is a very naughty man.
hdvd : 1
stik : 10
rtng : 0

Video #1
ID : 1
Format : AVC
Format/Info : Advanced Video Codec
Format profile : High@L4.0
Format settings, CABAC : Yes
Format settings, ReFrames : 9 frames
Codec ID : avc1
Codec ID/Info : Advanced Video Coding
Duration : 22mn 12s
Bit rate mode : Variable
Bit rate : 3 300 Kbps
Width : 1 024 pixels
Height : 576 pixels
Display aspect ratio : 16:9
Frame rate mode : Variable
Frame rate : 23.976 fps
Minimum frame rate : 23.810 fps
Maximum frame rate : 24.390 fps
Color space : YUV
Chroma subsampling : 4:2:0
Bit depth : 8 bits
Scan type : Progressive
Bits/(Pixel*Frame) : 0.233
Stream size : 524 MiB (83%)
Writing library : x264 core 120
Encoding settings : cabac=1 / ref=9 / deblock=1:0:0 / analyse=0x3:0x113 / me=umh / subme=9 / psy=1 / psy_rd=1.00:0.00 / mixed_ref=1 / me_range=32 / chroma_me=1 / trellis=1 / 8x8dct=1 / cqm=0 / deadzone=21,11 / fast_pskip=1 / chroma_qp_offset=-2 / threads=3 / sliced_threads=0 / nr=0 / decimate=1 / interlaced=0 / bluray_compat=0 / constrained_intra=0 / bframes=6 / b_pyramid=2 / b_adapt=2 / b_bias=0 / direct=1 / weightb=1 / open_gop=0 / weightp=2 / keyint=240 / keyint_min=24 / scenecut=40 / intra_refresh=0 / rc_lookahead=40 / rc=2pass / mbtree=1 / bitrate=3300 / ratetol=1.0 / qcomp=0.60 / qpmin=3 / qpmax=69 / qpstep=4 / cplxblur=20.0 / qblur=0.5 / ip_ratio=1.40 / aq=1:1.00
Language : English
Encoded date : UTC 2013-01-31 17:09:17
Tagged date : UTC 2013-01-31 17:13:45
Color primaries : BT.709-5, BT.1361, IEC 61966-2-4, SMPTE RP177
Transfer characteristics : BT.709-5, BT.1361
Matrix coefficients : BT.709-5, BT.1361, IEC 61966-2-4 709, SMPTE RP177

Video #2
ID : 17
Format : JPEG
Codec ID : jpeg
Duration : 22mn 12s
Bit rate mode : Variable
Bit rate : 1 348 bps
Width : 640 pixels
Height : 360 pixels
Display aspect ratio : 16:9
Frame rate mode : Variable
Frame rate : 0.003 fps
Minimum frame rate : 0.002 fps
Maximum frame rate : 0.021 fps
Color space : YUV
Chroma subsampling : 4:2:0
Bit depth : 8 bits
Compression mode : Lossy
Bits/(Pixel*Frame) : 1.950
Stream size : 219 KiB (0%)
Language : English
Encoded date : UTC 2013-01-31 17:13:47
Tagged date : UTC 2013-01-31 17:13:47

Audio #1
ID : 2
Format : AAC
Format/Info : Advanced Audio Codec
Format profile : LC
Codec ID : 40
Duration : 22mn 13s
Bit rate mode : Variable
Bit rate : 160 Kbps
Maximum bit rate : 328 Kbps
Channel(s) : 2 channels
Channel positions : Front: L R
Sampling rate : 48.0 KHz
Compression mode : Lossy
Stream size : 25.4 MiB (4%)
Language : Russian
Encoded date : UTC 2013-01-31 17:09:17
Tagged date : UTC 2013-01-31 17:13:45

Audio #2
ID : 3
Format : AAC
Format/Info : Advanced Audio Codec
Format profile : LC
Codec ID : 40
Duration : 22mn 13s
Bit rate mode : Variable
Bit rate : 159 Kbps
Maximum bit rate : 255 Kbps
Channel(s) : 2 channels
Channel positions : Front: L R
Sampling rate : 48.0 KHz
Compression mode : Lossy
Stream size : 25.3 MiB (4%)
Language : Ukrainian
Encoded date : UTC 2013-01-31 17:09:17
Tagged date : UTC 2013-01-31 17:13:45

Audio #3
ID : 4
Format : AAC
Format/Info : Advanced Audio Codec
Format profile : LC
Codec ID : 40
Duration : 22mn 13s
Bit rate mode : Variable
Bit rate : 160 Kbps
Maximum bit rate : 331 Kbps
Channel(s) : 2 channels
Channel positions : Front: L R
Sampling rate : 48.0 KHz
Compression mode : Lossy
Stream size : 25.4 MiB (4%)
Language : English
Encoded date : UTC 2013-01-31 17:09:17
Tagged date : UTC 2013-01-31 17:13:45

Audio #4
ID : 5
Format : AAC
Format/Info : Advanced Audio Codec
Format profile : LC
Codec ID : 40
Duration : 22mn 13s
Bit rate mode : Variable
Bit rate : 160 Kbps
Maximum bit rate : 305 Kbps
Channel(s) : 2 channels
Channel positions : Front: L R
Sampling rate : 48.0 KHz
Compression mode : Lossy
Stream size : 25.4 MiB (4%)
Language : French
Encoded date : UTC 2013-01-31 17:09:17
Tagged date : UTC 2013-01-31 17:13:45

Text #1
ID : 6
Format : Timed text
Muxing mode : sbtl
Codec ID : tx3g
Duration : 22mn 9s
Bit rate mode : Variable
Bit rate : 80 bps
Stream size : 13.0 KiB (0%)
Language : English
Encoded date : UTC 2013-01-31 17:09:17
Tagged date : UTC 2013-01-31 17:13:45

Text #2
ID : 7
Format : Timed text
Muxing mode : sbtl
Codec ID : tx3g
Duration : 22mn 9s
Bit rate mode : Variable
Bit rate : 58 bps
Stream size : 9.34 KiB (0%)
Language : French
Encoded date : UTC 2013-01-31 17:09:17
Tagged date : UTC 2013-01-31 17:13:45

Text #3
ID : 8
Format : Timed text
Muxing mode : sbtl
Codec ID : tx3g
Duration : 22mn 9s
Bit rate mode : Variable
Bit rate : 63 bps
Stream size : 10.2 KiB (0%)
Language : Spanish
Encoded date : UTC 2013-01-31 17:09:17
Tagged date : UTC 2013-01-31 17:13:45

Text #4
ID : 9
Format : Timed text
Muxing mode : sbtl
Codec ID : tx3g
Duration : 22mn 9s
Bit rate mode : Variable
Bit rate : 56 bps
Stream size : 9.12 KiB (0%)
Language : Dutch
Encoded date : UTC 2013-01-31 17:09:17
Tagged date : UTC 2013-01-31 17:13:45

Text #5
ID : 10
Format : Timed text
Muxing mode : sbtl
Codec ID : tx3g
Duration : 22mn 9s
Bit rate mode : Variable
Bit rate : 71 bps
Stream size : 11.5 KiB (0%)
Language : Spanish
Encoded date : UTC 2013-01-31 17:09:18
Tagged date : UTC 2013-01-31 17:13:45

Text #6
ID : 11
Format : Timed text
Muxing mode : sbtl
Codec ID : tx3g
Duration : 22mn 9s
Bit rate mode : Variable
Bit rate : 68 bps
Stream size : 11.1 KiB (0%)
Language : Portuguese
Encoded date : UTC 2013-01-31 17:09:18
Tagged date : UTC 2013-01-31 17:13:45

Text #7
ID : 12
Format : Timed text
Muxing mode : sbtl
Codec ID : tx3g
Duration : 22mn 9s
Bit rate mode : Variable
Bit rate : 63 bps
Stream size : 10.3 KiB (0%)
Language : Danish
Encoded date : UTC 2013-01-31 17:09:18
Tagged date : UTC 2013-01-31 17:13:45

Text #8
ID : 13
Format : Timed text
Muxing mode : sbtl
Codec ID : tx3g
Duration : 22mn 9s
Bit rate mode : Variable
Bit rate : 59 bps
Stream size : 9.53 KiB (0%)
Language : Finnish
Encoded date : UTC 2013-01-31 17:09:18
Tagged date : UTC 2013-01-31 17:13:45

Text #9
ID : 14
Format : Timed text
Muxing mode : sbtl
Codec ID : tx3g
Duration : 22mn 9s
Bit rate mode : Variable
Bit rate : 53 bps
Stream size : 8.65 KiB (0%)
Language : Norwegian
Encoded date : UTC 2013-01-31 17:09:18
Tagged date : UTC 2013-01-31 17:13:45

Text #10
ID : 15
Format : Timed text
Muxing mode : sbtl
Codec ID : tx3g
Duration : 22mn 9s
Bit rate mode : Variable
Bit rate : 60 bps
Stream size : 9.70 KiB (0%)
Language : Swedish
Encoded date : UTC 2013-01-31 17:09:18
Tagged date : UTC 2013-01-31 17:13:45

Text #11
ID : 16
Format : Apple text
Codec ID : text
Duration : 22mn 12s
Bit rate mode : Constant
Bit rate : 1 bps
Stream size : 92.0 Bytes (0%)
Language : English
Encoded date : UTC 2013-01-31 17:13:45
Tagged date : UTC 2013-01-31 17:13:45

Menu
00:00:00.000 : Chapter 1
00:00:47.630 : Chapter 2
00:11:01.243 : Chapter 3
00:21:22.114 : Chapter 4



   Похожие торренты   Торрент   Размер 
В этой теме нет новых непрочитанных сообщений. Друзья / Friends [S03] (1996-1997) BDRip-AVC | iPad

10 | 5

16.12 ГБ

В этой теме нет новых непрочитанных сообщений. Друзья / Friends [S01] (1994-1995) BDRip-AVC | iPad

17 | 4

15.5 ГБ

В этой теме нет новых непрочитанных сообщений. Друзья / Friends [S02] (1995-1996) BDRip-AVC от HQCLUB

219 | 26

10.59 ГБ

В этой теме нет новых непрочитанных сообщений. Друзья / Friends [S02] (1995-1996) HDTVRip-AVC

24 | 10

10.56 ГБ

В этой теме нет новых непрочитанных сообщений. Друзья / Friends [S02] (1995-1996) HDTV 720p

47 | 16

20.07 ГБ

В этой теме нет новых непрочитанных сообщений. Друзья / Friends [S09] (2002-2003) BDRip-AVC | iPad

9 | 11

13.74 ГБ

В этой теме нет новых непрочитанных сообщений. Друзья / Friends [S07] (2000-2001) BDRip-AVC | iPad

6 | 17

12.7 ГБ




Вы не можете начинать темы
Вы не можете отвечать на сообщения
Вы не можете редактировать свои сообщения
Вы не можете удалять свои сообщения
Вы не можете добавлять вложения

Перейти:  
Для Мосгорсуда, Роскомнадзора и рекламодателей: mosgorsud-torrent[собачка]yandex.ru
 Вход
ppkBB3cker v.2 © 2008-2014 @ PPK
[ Time : 0.129s | 14 Queries | GZIP : Off ]

Торрент трекер RUTOR.IN, Не можете зайти на rutor.org? Какой новый адрес рутор? Какое зеркало рутор? Не работает rutor.org и зеркала? Тогда наш торрент специально для вас. Rutor.in неофициальное зеркало rutor. В случае если у Вас заблокирован rutor или вдруг Вы не можете на него зайти, то Вы без труда сможете скачать бесплатно и без рекламы последние новинки кино, игр, сериалов и прочего у нас, на Rutor.in. Не нужно использовать прокси, чтобы зайти на рутор, достаточно воспользоваться нашим ресурсом. Все новые фильмы, игры, сериалы, книги и музыка за 2013 и 2014 годы через торрент бесплатно. Скачивайте фильмы в хорошем качестве, игры для пк, xbox, playstation без регистрации. У нас вы найдете новые Зарубежные сериалы и Русские сериалы 2013, 2014, 2015 годов. Оставайтесь с нами, качайте любимые фильмы, игры, сериалы, книги и музыку.