img image001 image001 image001 image001 image001 image001 image001 image001 image001 image001 image001 image001 image001 image001 image001

Planets Sun Sun Sun
Статистика раздачи
Автор: Снежана | Размер: 14.05 ГБ | Добавлен: 25 июл 2013
Раздают: 30    Качают: 18
Скачать торрент
Скачать торрент
Описание торрента

СообщениеДобавлено: 25 июл 2013 



Производство: Star Media
Год выпуска: 2011
Премьера: 26 марта 2012 (НТВ)
Жанр: детектив
Продолжительность: ~00:44:00
Режиссёр: Михаил Кабанов

В ролях: Александр Бухаров, Владимир Гостюхин, Дмитрий Щербина, Борис Хвошнянский, Ольга Красько, Ирина Сидорова, Ольга Дибцева, Максим Заусалин, Максим Щёголев, Матвей Зубалевич, Артем Кобзев, Наталья Людскова, Юлия Маргулис, Ксения Непотребная, Евгений Фроленков, Павел Шингарев, Дмитрий Янышевский, Алла Малкова

Описание:
На окраине Москвы есть микрорайон, который в простонародье прозвали Новоселками. Здесь, как и в любом подобном районе, наблюдается невероятный разгул преступности. Живущие в Новоселках люди уже настолько свыклись с таким положением вещей, что их трудно заставить поверить в то, что жизнь района может измениться в лучшую сторону.
Однако иногда находятся люди, имеющие настолько сильный характер и волю, что они способны изменить даже такое устоявшееся положение вещей. И такой человек приезжает в этот район. Им оказывается Сергей Громов, в прошлом оперуполномоченный УВД, а ныне – новый участковый района.
Сергей никогда не говорит о своей работе и своем прошлом, но он – настоящий профессионал, привыкший мгновенно реагировать на меняющуюся ситуацию. Ему придется немало потрудиться, чтобы изменить ситуацию с криминалом, сложившуюся в Новоселках.



Сэмпл

Качество: SATRip-AVC
Формат: MKV
Видео кодек: H.264
Аудио кодек: AC3
Видео: AVC (H.264), 688x416@733x416 (16:9), 25.000 fps, 1686 kbps avg, 0.236 bit/pixel
Аудио: AC3, 48 kHz, 16 bits, 192 kbps, 2.0 ch

Общее
Уникальный идентификатор : 181100034788568373097810908724954740589 (0x883E99160FD69BCE9868629C0435376D)
Полное имя : G:VideoУчастковый.2011.SATRip-AVC.by.kvvk_2009Участковый.01.серия.2011.SATRip-AVC.by.kvvk_2009.mkv
Формат : Matroska
Версия формата : Version 2
Размер файла : 589 Мбайт
Продолжительность : 43 м.
Общий поток : 1880 Кбит/сек
Дата кодирования : UTC 2013-01-24 17:35:43
Программа кодирования : mkvmerge v3.4.0 ('Rapunzel') built on May 15 2010 09:38:20
Библиотека кодирования : libebml v0.8.0 + libmatroska v0.9.0

Видео
Идентификатор : 1
Формат : AVC
Формат/Информация : Advanced Video Codec
Профиль формата : High@L4.1
Параметр CABAC формата : Да
Параметр ReFrames формата : 9 кадров
Идентификатор кодека : V_MPEG4/ISO/AVC
Продолжительность : 43 м.
Битрейт : 1686 Кбит/сек
Ширина : 688 пикселей
Высота : 416 пикселей
Соотношение сторон : 16:9
Соотношение сторон в оригинале : 16:9
Частота кадров : 25,000 кадров/сек
Цветовое пространство : YUV
Субдискретизация насыщенности : 4:2:0
Битовая глубина : 8 бит
Тип развёртки : Прогрессивная
Бит/(Пиксели*Кадры) : 0.236
Размер потока : 517 Мбайт (88%)
Библиотека кодирования : x264 core 129 r2230 1cffe9f
Настройки программы : cabac=1 / ref=9 / deblock=1:-2:-2 / analyse=0x3:0x113 / me=umh / subme=9 / psy=1 / psy_rd=1.00:0.15 / mixed_ref=1 / me_range=32 / chroma_me=1 / trellis=2 / 8x8dct=1 / cqm=0 / deadzone=21,11 / fast_pskip=1 / chroma_qp_offset=-3 / threads=3 / lookahead_threads=1 / sliced_threads=0 / nr=0 / decimate=0 / interlaced=0 / bluray_compat=0 / constrained_intra=0 / bframes=10 / b_pyramid=2 / b_adapt=2 / b_bias=0 / direct=3 / weightb=1 / open_gop=0 / weightp=2 / keyint=250 / keyint_min=25 / scenecut=40 / intra_refresh=0 / rc=2pass / mbtree=0 / bitrate=1686 / ratetol=1.0 / qcomp=0.60 / qpmin=0 / qpmax=51 / qpstep=4 / cplxblur=20.0 / qblur=0.5 / ip_ratio=1.40 / pb_ratio=1.30 / aq=1:0.90
Язык : English
Default : Нет
Forced : Нет

Аудио
Идентификатор : 2
Формат : AC-3
Формат/Информация : Audio Coding 3
Расширение режима : CM (complete main)
Идентификатор кодека : A_AC3
Продолжительность : 43 м.
Вид битрейта : Постоянный
Битрейт : 192 Кбит/сек
Каналы : 2 канала
Расположение каналов : Front: L R
Частота : 48,0 КГц
Битовая глубина : 16 бит
Метод сжатия : С потерями
Размер потока : 60,2 Мбайт (10%)
Заголовок : AC3 2ch @ 192 kbps
Язык : Russian
Default : Да
Forced : Нет






   Похожие торренты   Торрент   Размер 
В этой теме нет новых непрочитанных сообщений. Участковый [01-24 из 24] (2012) SATRip от RiperAM

98 | 40

11.81 ГБ

В этой теме нет новых непрочитанных сообщений. Участковый [01-24 из 24] (2012) SATRip | КПК от Generalfilm

33 | 6

2.81 ГБ

В этой теме нет новых непрочитанных сообщений. Участковый детектив [45] (2011) SATRip от RiperAM

1 | 1

380.98 МБ

В этой теме нет новых непрочитанных сообщений. Участковый детектив [01-35] (2011) SATRip от КинозалSAT

0 | 19

11.96 ГБ

В этой теме нет новых непрочитанных сообщений. Участковый [01-13 из 24] (2011) HDTVRip от Generalfilm

0 | 9

5.81 ГБ

В этой теме нет новых непрочитанных сообщений. Участковый [01-04 из 24] (2011) HDTVRip-AVC от Files-x

12 | 4

2.53 ГБ

В этой теме нет новых непрочитанных сообщений. Участковый [01-02 из 24] (2011) HDTV 1080i от MediaClub

12 | 9

4.8 ГБ




Вы не можете начинать темы
Вы не можете отвечать на сообщения
Вы не можете редактировать свои сообщения
Вы не можете удалять свои сообщения
Вы не можете добавлять вложения

Перейти:  
Для Мосгорсуда, Роскомнадзора и рекламодателей: mosgorsud-torrent[собачка]yandex.ru
 Вход
ppkBB3cker v.2 © 2008-2014 @ PPK
[ Time : 0.056s | 16 Queries | GZIP : Off ]

cron