img image001 image001 image001 image001 image001 image001 image001 image001 image001 image001 image001 image001 image001 image001 image001

Planets Sun Sun Sun
Статистика раздачи
Автор: Снежана | Размер: 18.13 ГБ | Добавлен: 25 июл 2013
Раздают: 4    Качают: 2
Скачать торрент
Скачать торрент
Описание торрента

СообщениеДобавлено: 25 июл 2013 

#77

Название: Босс
Оригинальное название: Boss
Год выпуска: 2012
Страна: США
Жанр: Драма
Продолжительность: 10 х ~ 00:58:00
Перевод: Профессиональный (двухголосый, закадровый) - NewStudio
Субтитры: Русские, Английские
Режиссер: Жан Де Сегонзак, Марио Ван Пиблз, Джим МакКэй и др.

В ролях: Келси Грэммер, Конни Нильсен, Джеймс Винсент Мередит, Кэтлин Робертсон, Ханна Уэр, Джефф Хефнер, Стив Ленц, Анита Николь Браун и другие...

Описание: Сюжет рассказывает о мэре Чикаго, страдающем тяжелым психическим заболеванием и, в результате, нарушениями памяти и рассудка, но окружающие, включая и его жену, об этом не догадываются. Starz победил в битве за съемки сериала и заказал сразу первый сезон из 8 серий, не дожидаясь выхода на экраны, сериал продлили на второй сезон. Посмотрим, оправдаются ли ожидания создателей Boss.

Присутствует ненормативная лексика.



Перевод: Илья Белкин
Озвучка: Константин Погодаев, Анна Тух (БЯКО Рекордс)
Работа со звуком: Koss
Рип видео: Koss

Качество: HDTV 720p
Формат: MKV
Видео: MPEG-4 AVC, ~ 3800 Кбит/с, 1280x720
Аудио rus: АС3, 6 ch, 384 Кбит/с
Аудио eng: АС3, 2 ch, 384 Кбит/с

Добавлена 10-ая серия. Сезон полностью.

01 Громче чем слова / Louder Than Words
02 До конца / Through and Through
03 Омовение / Ablution
04 Искупление / Redemption
05 Мания / Mania
06 Обратный ход / Backflash
07 Переговоры / The Conversation
08 Результат / Consequence
09 Клинч / Clinch
10 Правда / True Enough
Формат : Matroska
Размер файла : 1,83 Гбайт
Продолжительность : 59 м.
Общий поток : 4445 Кбит/сек
Дата кодирования : UTC 2013-02-08 21:47:20
Программа кодирования : mkvmerge v5.0.0 ('Die Wahre Liebe') built on Sep 25 2011 20:33:49
Библиотека кодирования : libebml v1.2.2 + libmatroska v1.3.0

Видео
Идентификатор : 1
Формат : AVC
Формат/Информация : Advanced Video Codec
Профиль формата : Baseline@L3.1
Параметр CABAC формата : Нет
Параметр ReFrames формата : 1 кадр
Идентификатор кодека : V_MPEG4/ISO/AVC
Продолжительность : 59 м.
Битрейт : 3588 Кбит/сек
Ширина : 1280 пикс.
Высота : 720 пикс.
Соотношение сторон : 16:9
Режим частоты кадров : Переменный
Частота кадров : 23,976 кадр/сек
Цветовое пространство : YUV
Подвыборка цветности : 4:2:0
Битовая глубина : 8 бит
Тип развёртки : Прогрессивная
Бит/(Пиксели*Кадры) : 0.162
Размер потока : 1,48 Гбайт (81%)
Язык : English

Аудио #1
Идентификатор : 2
Формат : AC-3
Формат/Информация : Audio Coding 3
Расширение режима : CM (complete main)
Идентификатор кодека : A_AC3
Продолжительность : 59 м.
Вид битрейта : Постоянный
Битрейт : 384 Кбит/сек
Каналы : 6 каналов
Расположение каналов : Front: L C R, Side: L R, LFE
Частота : 48,0 КГц
Битовая глубина : 16 бит
Метод сжатия : С потерями
Размер потока : 162 Мбайт (9%)
Заголовок : NewStudio
Язык : Russian

Аудио #2
Идентификатор : 3
Формат : AC-3
Формат/Информация : Audio Coding 3
Расширение режима : CM (complete main)
Идентификатор кодека : A_AC3
Продолжительность : 59 м.
Вид битрейта : Постоянный
Битрейт : 384 Кбит/сек
Каналы : 6 каналов
Расположение каналов : Front: L C R, Side: L R, LFE
Частота : 48,0 КГц
Битовая глубина : 16 бит
Метод сжатия : С потерями
Размер потока : 162 Мбайт (9%)
Язык : English

Текст #1
Идентификатор : 4
Формат : UTF-8
Идентификатор кодека : S_TEXT/UTF8
Идентификатор кодека/Информация : UTF-8 Plain Text
Язык : Russian

Текст #2
Идентификатор : 5
Формат : UTF-8
Идентификатор кодека : S_TEXT/UTF8
Идентификатор кодека/Информация : UTF-8 Plain Text
Язык : English



Релиз от:



   Похожие торренты   Торрент   Размер 
В этой теме нет новых непрочитанных сообщений. Босс / Boss [S01] (2011) HDTV 720p | NewStudio

5 | 3

14.18 ГБ

В этой теме нет новых непрочитанных сообщений. Босс / Boss [S02] (2012) BDRip 720p | NewStudio, Sony Turbo

35 | 27

25.61 ГБ

В этой теме нет новых непрочитанных сообщений. Босс / Boss [S02] (2012) HDTVRip | NewStudio

18 | 18

6.84 ГБ

В этой теме нет новых непрочитанных сообщений. Босс / Boss [S01-02] (2011-2012) BDRip | NewStudio

72 | 32

12.32 ГБ

В этой теме нет новых непрочитанных сообщений. Босс / Boss [S01] (2011) BDRip 720p | NewStudio, Sony Turbo

81 | 23

23.87 ГБ

В этой теме нет новых непрочитанных сообщений. Мой босс, мой герой / My Boss, My Hero [01-10] (2006) HDTV 720p от aleksei80 | L1

8 | 1

17.39 ГБ

В этой теме нет новых непрочитанных сообщений. Босс / Boss [S01] (2011) HDTVRip | NewStudio

37 | 11

5.47 ГБ




Вы не можете начинать темы
Вы не можете отвечать на сообщения
Вы не можете редактировать свои сообщения
Вы не можете удалять свои сообщения
Вы не можете добавлять вложения

Перейти:  
Для Мосгорсуда, Роскомнадзора и рекламодателей: mosgorsud-torrent[собачка]yandex.ru
 Вход
ppkBB3cker v.2 © 2008-2014 @ PPK
[ Time : 0.053s | 14 Queries | GZIP : Off ]

Торрент трекер RUTOR.IN, Не можете зайти на rutor.org? Какой новый адрес рутор? Какое зеркало рутор? Не работает rutor.org и зеркала? Тогда наш торрент специально для вас. Rutor.in неофициальное зеркало rutor. В случае если у Вас заблокирован rutor или вдруг Вы не можете на него зайти, то Вы без труда сможете скачать бесплатно и без рекламы последние новинки кино, игр, сериалов и прочего у нас, на Rutor.in. Не нужно использовать прокси, чтобы зайти на рутор, достаточно воспользоваться нашим ресурсом. Все новые фильмы, игры, сериалы, книги и музыка за 2013 и 2014 годы через торрент бесплатно. Скачивайте фильмы в хорошем качестве, игры для пк, xbox, playstation без регистрации. У нас вы найдете новые Зарубежные сериалы и Русские сериалы 2013, 2014, 2015 годов. Оставайтесь с нами, качайте любимые фильмы, игры, сериалы, книги и музыку.