img image001 image001 image001 image001 image001 image001 image001 image001 image001 image001 image001 image001 image001 image001 image001

Planets Sun Sun Sun
Статистика раздачи
Автор: Снежана | Размер: 16.54 ГБ | Добавлен: 25 июл 2013
Раздают: 3    Качают: 2
Скачать торрент
Скачать торрент
Описание торрента

СообщениеДобавлено: 25 июл 2013 

#77

Информация о фильме
Оригинальное название: Высоцкий. Четыре часа настоящей жизни
Год выпуска: 2012
Жанр: Драма, биография, мини-сериал
Выпущено: Россия
Режиссер: Петр Буслов
В ролях: Оксана Акиньшина, Сергей Безруков, Андрей Смоляков, Иван Ургант, Андрей Панин, Дмитрий Астрахан, Анна Ардова, Владимир Ильин, Максим Леонидов, Сергей Шакуров

О фильме: Фильм рассказывает об одном из наиболее драматичных периодов жизни Владимира Высоцкого. Мы застаем героя на пике известности. В конце 70-х Высоцкий — самый знаменитый человек в СССР, кумир миллионов. Но его силы на исходе. Он измотан, он больше не ощущает свой дар, он не может писать стихи…



Файл
Качество: BDRip (1080p)
Видео: MPEG-4 AVC, 11.0 Мбит/с, 1920x802
Аудио: AC3, 6 ch, 640 Кбит/с
Размер: 16.54 ГБ
Продолжительность: 4 x ~ 00:50:30
Язык: Русский

Семпл

Общее
Уникальный идентификатор : 209943616119309971363364358948253671658 (0x9DF1AB70EA80845A8B884D7D621120EA)
Полное имя : U:РаздачиVysotskiy.4.chasa.zhizni.2012.x264.BDRip.(1080p)1.seriya.mkv
Формат : Matroska
Версия формата : Version 2
Размер файла : 4,07 Гбайт
Продолжительность : 50 м.
Режим общего битрейта : Переменный
Общий поток : 11,6 Мбит/сек
Дата кодирования : UTC 2013-02-09 02:34:06
Программа кодирования : mkvmerge v4.3.0 ('Escape from the Island') сборка от Sep 5 2010 10:30:51
Библиотека кодирования : libebml v1.0.0 + libmatroska v1.0.0

Видео
Идентификатор : 1
Формат : AVC
Формат/Информация : Advanced Video Codec
Профиль формата : High@L4.1
Параметр CABAC формата : Да
Параметр ReFrames формата : 4 кадра
Идентификатор кодека : V_MPEG4/ISO/AVC
Продолжительность : 50 м.
Вид битрейта : Переменный
Битрейт : 11,0 Мбит/сек
Максимальный битрейт : 40,0 Мбит/сек
Ширина : 1920 пикселей
Высота : 802 пикселя
Соотношение сторон : 2,40:1
Частота кадров : 24,000 кадра/сек
Цветовое пространство : YUV
Субдискретизация насыщенности : 4:2:0
Битовая глубина : 8 бит
Тип развёртки : Прогрессивная
Бит/(Пиксели*Кадры) : 0.298
Размер потока : 3,77 Гбайт (92%)
Библиотека кодирования : x264 core 129 r2245 bc13772
Настройки программы : cabac=1 / ref=4 / deblock=1:-3:-3 / analyse=0x3:0x133 / me=umh / subme=7 / psy=1 / psy_rd=1.00:0.15 / mixed_ref=1 / me_range=32 / chroma_me=1 / trellis=1 / 8x8dct=1 / cqm=0 / deadzone=21,11 / fast_pskip=1 / chroma_qp_offset=-5 / threads=10 / lookahead_threads=1 / sliced_threads=0 / nr=0 / decimate=1 / interlaced=0 / bluray_compat=0 / constrained_intra=0 / bframes=4 / b_pyramid=2 / b_adapt=2 / b_bias=4 / direct=1 / weightb=1 / open_gop=0 / weightp=2 / keyint=240 / keyint_min=24 / scenecut=40 / intra_refresh=0 / rc_lookahead=40 / rc=2pass / mbtree=1 / bitrate=11000 / ratetol=2.0 / qcomp=0.60 / qpmin=10 / qpmax=69 / qpstep=4 / cplxblur=20.0 / qblur=0.5 / vbv_maxrate=40000 / vbv_bufsize=50000 / nal_hrd=none / ip_ratio=1.40 / aq=1:1.
Язык : Russian
Default : Да
Forced : Нет

Аудио
Идентификатор : 2
Формат : AC-3
Формат/Информация : Audio Coding 3
Расширение режима : CM (complete main)
Идентификатор кодека : A_AC3
Продолжительность : 50 м.
Вид битрейта : Постоянный
Битрейт : 640 Кбит/сек
Каналы : 6 каналов
Расположение каналов : Front: L C R, Side: L R, LFE
Частота : 48,0 КГц
Битовая глубина : 16 бит
Метод сжатия : С потерями
Размер потока : 230 Мбайт (6%)
Язык : Russian
Default : Да
Forced : Нет

Меню
00:00:00.000 : :Chapter 01
00:18:24.083 : :Chapter 02
00:32:24.750 : :Chapter 03
00:50:15.750 : :Chapter 04







   Похожие торренты   Торрент   Размер 
В этой теме нет новых непрочитанных сообщений. Высоцкий. Четыре часа настоящей жизни [01-04 из 04] (2012) BDRip

17 | 2

3.19 ГБ

В этой теме нет новых непрочитанных сообщений. Высоцкий. Четыре часа настоящей жизни (2012) BDRip-AVC от olegek70

10 | 4

4.36 ГБ

В этой теме нет новых непрочитанных сообщений. Высоцкий. Четыре часа настоящей жизни (2012) BDRip 720p

103 | 3

7.95 ГБ

В этой теме нет новых непрочитанных сообщений. Высоцкий. Четыре часа настоящей жизни (2012) Blu-ray

0 | 2

44.13 ГБ

В этой теме нет новых непрочитанных сообщений. Война. Первые Четыре Часа + Фото [на Восточном Фронте] (2011) SATRip, JPEG

40 | 3

487.83 МБ

В этой теме нет новых непрочитанных сообщений. 24 часа из жизни женщины / 24 heures de la vie d'une femme (2002) DVDRip от Киномагия

12 | 4

1.37 ГБ

В этой теме нет новых непрочитанных сообщений. Пять дней из жизни генерального конструктора (Герои Беларуси. Генеральный конструктор МАЗ - Михаил Высоцкий) (2006) DVB от AND03AND

27 | 6

676.57 МБ




Вы не можете начинать темы
Вы не можете отвечать на сообщения
Вы не можете редактировать свои сообщения
Вы не можете удалять свои сообщения
Вы не можете добавлять вложения

Перейти:  
Для Мосгорсуда, Роскомнадзора и рекламодателей: mosgorsud-torrent[собачка]yandex.ru
 Вход
ppkBB3cker v.2 © 2008-2014 @ PPK
[ Time : 0.046s | 17 Queries | GZIP : Off ]

Торрент трекер RUTOR.IN, Не можете зайти на rutor.org? Какой новый адрес рутор? Какое зеркало рутор? Не работает rutor.org и зеркала? Тогда наш торрент специально для вас. Rutor.in неофициальное зеркало rutor. В случае если у Вас заблокирован rutor или вдруг Вы не можете на него зайти, то Вы без труда сможете скачать бесплатно и без рекламы последние новинки кино, игр, сериалов и прочего у нас, на Rutor.in. Не нужно использовать прокси, чтобы зайти на рутор, достаточно воспользоваться нашим ресурсом. Все новые фильмы, игры, сериалы, книги и музыка за 2013 и 2014 годы через торрент бесплатно. Скачивайте фильмы в хорошем качестве, игры для пк, xbox, playstation без регистрации. У нас вы найдете новые Зарубежные сериалы и Русские сериалы 2013, 2014, 2015 годов. Оставайтесь с нами, качайте любимые фильмы, игры, сериалы, книги и музыку.
cron