img image001 image001 image001 image001 image001 image001 image001 image001 image001 image001 image001 image001 image001 image001 image001

Planets Sun Sun Sun
Статистика раздачи
Автор: Снежана | Размер: 2.91 ГБ | Добавлен: 25 июл 2013
Раздают: 1    Качают: 2
Скачать торрент
Скачать торрент
Описание торрента

СообщениеДобавлено: 25 июл 2013 

#77

Страна: Россия
Год выпуска: 2001
Жанр: драма
Продолжительность: 4 х ~ 00:52:00

Режиссёр: Андрей Селиванов

В ролях: Ирина Апексимова, Татьяна Лесневская, Лев Прыгунов, Андрей Руденский, Ярослав Бойко, Наталия Гончарова...

Описание: Насте около тридцати, она безумно любит свою семью. Все ее детдомовские мечты воплотились, — рядом с нею теперь есть родные люди, друзья, интересная работа. Но однажды сын и муж гибнут под колесами дорогого джипа. Трагедия происходит на глазах у Насти.
Виновницей происшествия оказывается Елена Шалевич — неуравновешенная жена очень богатого человека. Владимир Шалевич старается помочь и Насте, и жене. Настя отвергает любые примирительные инициативы Шалевича. Адвокат Елены Шалевич устраивает подлую провокацию против Насти: ей подкидывают героин… Настя попадает в Бутырку. В коридорах тюрьмы она случайно сталкивается с Еленой Шалевич…





Раздача от:
Исходник: DVD9 R5
Качество: DVDRip-AVC
Формат: MKV

Видео: 704x572@768x572 (4:3), 25 fps, H264 ~ 1786 kbps avg, 0.177 bit/pixel
Аудио: 48 kHz, AC3, 2 ch, 192.00 kbps

Общее
Полное имя : Kletka.2001.O.DVDRip-AVC_[Youtracker]_by_avproh1.mkv
Формат : Matroska
Версия формата : Version 4 / Version 2
Размер файла : 745 Мбайт
Продолжительность : 52 м.
Общий поток : 1979 Кбит/сек
Дата кодирования : UTC 2010-02-22 21:41:31
Программа кодирования : mkvmerge v5.9.0 ('On The Loose') built on Dec 9 2012 15:37:01
Библиотека кодирования : libebml v1.3.0 + libmatroska v1.4.0

Видео
Идентификатор : 1
Формат : AVC
Формат/Информация : Advanced Video Codec
Профиль формата : High@L4.1
Параметр CABAC формата : Да
Параметр ReFrames формата : 11 кадров
Идентификатор кодека : V_MPEG4/ISO/AVC
Продолжительность : 52 м.
Битрейт : 1786 Кбит/сек
Ширина : 704 пикселя
Высота : 572 пикселя
Соотношение сторон : 4:3
Частота кадров : 25,000 кадров/сек
Цветовое пространство : YUV
Субдискретизация насыщенности : 4:2:0
Битовая глубина : 8 бит
Тип развёртки : Прогрессивная
Бит/(Пиксели*Кадры) : 0.177
Размер потока : 658 Мбайт (88%)
Библиотека кодирования : x264 core 119 r2106 07efeb4
Настройки программы : cabac=1 / ref=11 / deblock=1:-2:-1 / analyse=0x3:0x113 / me=umh / subme=9 / psy=1 / psy_rd=1.00:0.20 / mixed_ref=1 / me_range=32 / chroma_me=1 / trellis=1 / 8x8dct=1 / cqm=0 / deadzone=21,11 / fast_pskip=0 / chroma_qp_offset=-3 / threads=9 / sliced_threads=0 / nr=0 / decimate=0 / interlaced=0 / bluray_compat=0 / constrained_intra=0 / bframes=8 / b_pyramid=2 / b_adapt=2 / b_bias=0 / direct=3 / weightb=1 / open_gop=0 / weightp=2 / keyint=250 / keyint_min=25 / scenecut=40 / intra_refresh=0 / rc_lookahead=60 / rc=2pass / mbtree=1 / bitrate=1786 / ratetol=1.0 / qcomp=0.60 / qpmin=0 / qpmax=69 / qpstep=4 / cplxblur=20.0 / qblur=0.5 / ip_ratio=1.40 / aq=1:1.00
Язык : Russian
Default : Да
Forced : Нет

Аудио
Идентификатор : 2
Формат : AC-3
Формат/Информация : Audio Coding 3
Расширение режима : CM (complete main)
Параметр Endianness формата : Big
Идентификатор кодека : A_AC3
Продолжительность : 52 м.
Вид битрейта : Постоянный
Битрейт : 192 Кбит/сек
Каналы : 2 канала
Расположение каналов : Front: L R
Частота : 48,0 КГц
Битовая глубина : 16 бит
Метод сжатия : С потерями
Размер потока : 72,3 Мбайт (10%)
Язык : Russian
Default : Да
Forced : Нет





   Похожие торренты   Торрент   Размер 
В этой теме нет новых непрочитанных сообщений. Клетка [01-04 из 04] (2001) DVDRip от Youtracker

2 | 2

2.91 ГБ

В этой теме нет новых непрочитанных сообщений. Клетка [01-04 из 04] (2001) DVD9 от Youtracker | Лицензия

0 | 2

5.44 ГБ

В этой теме нет новых непрочитанных сообщений. Клетка для братвы / Friends and Family (2001) DVDRip от FilmRus | Р

5 | 4

1.37 ГБ

В этой теме нет новых непрочитанных сообщений. Клетка для пташек / Птичья клетка / The Birdcage (1996) DVDRip

2 | 2

1.46 ГБ

В этой теме нет новых непрочитанных сообщений. Клетка [01-04 из 04] (2001) DVD5

0 | 3

4.36 ГБ

В этой теме нет новых непрочитанных сообщений. Клетка для пташек / Птичья клетка / The Birdcage (1996) BDRemux 1080p от MediaClub

17 | 8

29.16 ГБ

В этой теме нет новых непрочитанных сообщений. Клетка для пташек / Птичья клетка / The Birdcage (1996) BDRip 720p от MediaClub

5 | 8

7.05 ГБ




Вы не можете начинать темы
Вы не можете отвечать на сообщения
Вы не можете редактировать свои сообщения
Вы не можете удалять свои сообщения
Вы не можете добавлять вложения

Перейти:  
Для Мосгорсуда, Роскомнадзора и рекламодателей: mosgorsud-torrent[собачка]yandex.ru
 Вход
ppkBB3cker v.2 © 2008-2014 @ PPK
[ Time : 0.058s | 14 Queries | GZIP : On ]

Торрент трекер RUTOR.IN, Не можете зайти на rutor.org? Какой новый адрес рутор? Какое зеркало рутор? Не работает rutor.org и зеркала? Тогда наш торрент специально для вас. Rutor.in неофициальное зеркало rutor. В случае если у Вас заблокирован rutor или вдруг Вы не можете на него зайти, то Вы без труда сможете скачать бесплатно и без рекламы последние новинки кино, игр, сериалов и прочего у нас, на Rutor.in. Не нужно использовать прокси, чтобы зайти на рутор, достаточно воспользоваться нашим ресурсом. Все новые фильмы, игры, сериалы, книги и музыка за 2013 и 2014 годы через торрент бесплатно. Скачивайте фильмы в хорошем качестве, игры для пк, xbox, playstation без регистрации. У нас вы найдете новые Зарубежные сериалы и Русские сериалы 2013, 2014, 2015 годов. Оставайтесь с нами, качайте любимые фильмы, игры, сериалы, книги и музыку.