img image001 image001 image001 image001 image001 image001 image001 image001 image001 image001 image001 image001 image001 image001 image001

Planets Sun Sun Sun
Статистика раздачи
Автор: Снежана | Размер: 5.78 ГБ | Добавлен: 25 июл 2013
Раздают: 2    Качают: 5
Скачать торрент
Скачать торрент
Описание торрента

СообщениеДобавлено: 25 июл 2013 

#77


Год выпуска: 2003
Страны: Великобритания
Слоган: «Your life depends on us.»
Жанры: триллер, драма
Продолжительность: 10 серий по 50 минут
Перевод: Профессиональный (многоголосый закадровый)

Режиссер: Олрик Райли, Бхарат Наллури, Сэм Миллер
Сценарий: Дэвид Волстенкрофт, Бен Ричардс, Ховард Брентон
Продюсер: Саймон Кроуфорд Коллинз, Джейн Фезерстоун, Эндрю Вудхед
Оператор: Дамиан Бромли, Сью Гибсон, Джеймс Уэлленд
Композитор : Пол Леонард-Морган, Дженни Маскет, Шеридан Тонг
Художник: Роберт Фостер, Стиви Херберт, Энтони Эйнсуорт
Монтаж: Джэми Пирсон, Пол Найт, Барни Пиллинг

В ролях: Питер Фёрт / Peter Firth (Harry Pearce), Хью Саймон / Hugh Simon (Malcolm Wynn-Jones), Николя Уолкер / Nicola Walker (Ruth Evershed), Руперт Пенри-Джонс / Rupert Penry-Jones (Adam Carter), Миранда Рэйсон / Miranda Raison (Jo Portman), Гермиона Норрис / Hermione Norris (Ros Myers), Рори МакГрегор / Rory MacGregor (Colin Wells), Дэвид Ойелоуо / David Oyelowo (Danny Hunter)


Описание: Призраки… Они не существуют, вы никогда не узнаете их имён, и они те, кто всегда стоят между вами и теми, кто пытается причинить вред стране. Группа агентов британской разведки известна как Призраки. По долгу службы им приходится скрывать свою настоящую личность. В обычной жизни у них другие имена и биографии. Они секретные агенты, ответственные за национальную безопасность королевства.


Качество: TVRip
Формат: AVI
Видео кодек: XviD
Аудио кодек: MP3
Видео: 640x480 (4:3), 25.000 fps, XviD, 1 298 Kbps
Аудио: Аудио #1: MP3, 128 Kbps, 48.0 KHz, 2 ch


General
Complete name : Spooks.MI-5 (s02e01) TVRip.avi
Format : AVI
Format/Info : Audio Video Interleave
File size : 521 MiB
Duration : 50mn 42s
Overall bit rate : 1 436 Kbps
Writing library : VirtualDub-MPEG2 build 23685/release

Video
ID : 0
Format : MPEG-4 Visual
Format profile : Advanced Simple@L5
Format settings, BVOP : Yes
Format settings, QPel : No
Format settings, GMC : No warppoints
Format settings, Matrix : Default (H.263)
Muxing mode : Packed bitstream
Codec ID : XVID
Codec ID/Hint : XviD
Duration : 50mn 42s
Bit rate : 1 298 Kbps
Width : 640 pixels
Height : 480 pixels
Display aspect ratio : 4:3
Frame rate : 25.000 fps
Color space : YUV
Chroma subsampling : 4:2:0
Bit depth : 8 bits
Scan type : Progressive
Bits/(Pixel*Frame) : 0.169
Stream size : 471 MiB (90%)
Writing library : XviD 1.1.2 (UTC 2006-11-01)

Audio
ID : 1
Format : MPEG Audio
Format version : Version 1
Format profile : Layer 3
Mode : Joint stereo
Mode extension : MS Stereo
Codec ID : 55
Codec ID/Hint : MP3
Duration : 50mn 42s
Bit rate mode : Constant
Bit rate : 128 Kbps
Channel(s) : 2 channels
Sampling rate : 48.0 KHz
Stream size : 46.4 MiB (9%)
Alignment : Split accross interleaves
Interleave, duration : 40 ms (1.00 video frame)
Interleave, preload duration : 500 ms
2.01 Эпизод #2.1 (02.06.2003)
2.02 Эпизод #2.2 (09.06.2003)
2.03 Эпизод #2.3 (16.06.2003)
2.04 Эпизод #2.4 (23.06.2003)
2.05 Эпизод #2.5 (07.07.2003)
2.06 Эпизод #2.6 (14.07.2003)
2.07 Эпизод #2.7 (21.07.2003)
2.08 Эпизод #2.8 (28.07.2003)
2.09 Эпизод #2.9 (04.08.2003)
2.10 Эпизод #2.10 (11.08.2003)






   Похожие торренты   Торрент   Размер 
В этой теме нет новых непрочитанных сообщений. Призраки / Spooks / MI-5 [S03] (2004) TVRip

2 | 5

5.28 ГБ

В этой теме нет новых непрочитанных сообщений. Призраки / Spooks / MI-5 [S01] (2002) TVRip

9 | 6

3.09 ГБ

В этой теме нет новых непрочитанных сообщений. Призраки: Код 9 / Spooks: Code-9 [S01] (2008) HDTVRip

2 | 2

2.31 ГБ

В этой теме нет новых непрочитанных сообщений. Призраки: Лучшая участь / Spooks: The Greater Good (2015) HDRip | L

3472 | 578

1.37 ГБ

В этой теме нет новых непрочитанных сообщений. Призраки: Лучшая участь / Spooks: The Greater Good (2015) HDRip | Sub

88 | 15

1.37 ГБ

В этой теме нет новых непрочитанных сообщений. Призраки: Лучшая участь / Spooks: The Greater Good (2015) HDRip | L

389 | 124

2.05 ГБ

В этой теме нет новых непрочитанных сообщений. Призраки: Лучшая участь / Spooks: The Greater Good (2015) HDRip от MegaPeer | L

360 | 22

748.04 МБ




Вы не можете начинать темы
Вы не можете отвечать на сообщения
Вы не можете редактировать свои сообщения
Вы не можете удалять свои сообщения
Вы не можете добавлять вложения

Перейти:  
Для Мосгорсуда, Роскомнадзора и рекламодателей: mosgorsud-torrent[собачка]yandex.ru
 Вход
ppkBB3cker v.2 © 2008-2014 @ PPK
[ Time : 0.091s | 15 Queries | GZIP : Off ]

Торрент трекер RUTOR.IN, Не можете зайти на rutor.org? Какой новый адрес рутор? Какое зеркало рутор? Не работает rutor.org и зеркала? Тогда наш торрент специально для вас. Rutor.in неофициальное зеркало rutor. В случае если у Вас заблокирован rutor или вдруг Вы не можете на него зайти, то Вы без труда сможете скачать бесплатно и без рекламы последние новинки кино, игр, сериалов и прочего у нас, на Rutor.in. Не нужно использовать прокси, чтобы зайти на рутор, достаточно воспользоваться нашим ресурсом. Все новые фильмы, игры, сериалы, книги и музыка за 2013 и 2014 годы через торрент бесплатно. Скачивайте фильмы в хорошем качестве, игры для пк, xbox, playstation без регистрации. У нас вы найдете новые Зарубежные сериалы и Русские сериалы 2013, 2014, 2015 годов. Оставайтесь с нами, качайте любимые фильмы, игры, сериалы, книги и музыку.
cron