img image001 image001 image001 image001 image001 image001 image001 image001 image001 image001 image001 image001 image001 image001 image001

Planets Sun Sun Sun
Статистика раздачи
Автор: Снежана | Размер: 7.59 ГБ | Добавлен: 26 июл 2013
Раздают: 2    Качают: 2
Скачать торрент
Скачать торрент
Описание торрента

СообщениеДобавлено: 26 июл 2013 

#77

Год выпуска: 2012
Страна: Канада, Германия, Великобритания
Жанр: триллер, драма, мелодрама, история
Продолжительность: 8 х ~00:47:25

Перевод: Профессиональный (многоголосый, закадровый)
Оригинальная аудиодорожка: английский
Русские субтитры: есть

Режиссёр: Майкл Кейтон-Джонс / Michael Caton-Jones

В ролях: Бен Чаплин, Шарлотта Райли, Нора фон Вальдштеттен, Оливер Джексон-Коэн, Руперт Эванс, Том Уэстон-Джонс, Том Каллен, Блейк Ритсон, Сэлли Бэнкс, Нил Белл...

Описание: Действие сериала разворачивается в вымышленном английском городке Кингсбридж, в 1300-х годах, когда страна находилась на пороге Столетней войны с Францией и вспышки эпидемии чумы в Европе. На рынках процветающего городка Кингсбридж ходят слухи, что король Англии погиб при странных обстоятельствах. Гражданская война закончилась, но экономическое положение города позволяет ему оставаться надежным средством пополнения казны.





Раздача от:
Исходник: 2 х DVD9 R5
Качество: DVDRip-AVC
Формат: MKV

Видео: 720x576@1024x576 (16:9), 25 fps, H264 ~ 2006 kbps avg, 0.193 bit/pixel
Аудио 1: 48 kHz, AC3, 6 ch, 448.00 kbps, русский
Аудио 2: 48 kHz, AC3, 6 ch, 448.00 kbps, английский
Формат субтитров: SoftSub (srt)

Общее
Полное имя : Mir.bez.kontsa.s01.2012.DVDRip-AVC_[Youtracker]_by_avproh1.mkv
Формат : Matroska
Версия формата : Version 2
Размер файла : 1017 Мбайт
Продолжительность : 48 м.
Общий поток : 2903 Кбит/сек
Дата кодирования : UTC 2013-02-17 07:45:54
Программа кодирования : mkvmerge v4.4.0 ('Die Wiederkehr') сборка от Nov 7 2010 22:17:07
Библиотека кодирования : libebml v1.0.0 + libmatroska v1.0.0

Видео
Идентификатор : 1
Формат : AVC
Формат/Информация : Advanced Video Codec
Профиль формата : High@L4.1
Параметр CABAC формата : Да
Параметр ReFrames формата : 11 кадров
Режим смешивания : Header stripping
Идентификатор кодека : V_MPEG4/ISO/AVC
Продолжительность : 48 м.
Битрейт : 2006 Кбит/сек
Ширина : 720 пикселей
Высота : 576 пикселей
Соотношение сторон : 16:9
Частота кадров : 25,000 кадров/сек
Стандарт вещания : PAL
Цветовое пространство : YUV
Субдискретизация насыщенности : 4:2:0
Битовая глубина : 8 бит
Тип развёртки : Прогрессивная
Бит/(Пиксели*Кадры) : 0.193
Размер потока : 683 Мбайт (67%)
Библиотека кодирования : x264 core 119 r2106 07efeb4
Настройки программы : cabac=1 / ref=11 / deblock=1:-2:-1 / analyse=0x3:0x113 / me=umh / subme=9 / psy=1 / psy_rd=1.00:0.20 / mixed_ref=1 / me_range=32 / chroma_me=1 / trellis=1 / 8x8dct=1 / cqm=0 / deadzone=21,11 / fast_pskip=0 / chroma_qp_offset=-3 / threads=6 / sliced_threads=0 / nr=0 / decimate=0 / interlaced=0 / bluray_compat=0 / constrained_intra=0 / bframes=8 / b_pyramid=2 / b_adapt=2 / b_bias=0 / direct=3 / weightb=1 / open_gop=0 / weightp=2 / keyint=250 / keyint_min=25 / scenecut=40 / intra_refresh=0 / rc_lookahead=60 / rc=2pass / mbtree=1 / bitrate=2006 / ratetol=1.0 / qcomp=0.60 / qpmin=0 / qpmax=69 / qpstep=4 / cplxblur=20.0 / qblur=0.5 / ip_ratio=1.40 / aq=1:1.00
Язык : English
Default : Да
Forced : Нет

Аудио #1
Идентификатор : 2
Формат : AC-3
Формат/Информация : Audio Coding 3
Расширение режима : CM (complete main)
Параметр Endianness формата : Big
Режим смешивания : Header stripping
Идентификатор кодека : A_AC3
Продолжительность : 48 м.
Вид битрейта : Постоянный
Битрейт : 448 Кбит/сек
Каналы : 6 каналов
Расположение каналов : Front: L C R, Side: L R, LFE
Частота : 48,0 КГц
Битовая глубина : 16 бит
Метод сжатия : С потерями
Размер потока : 157 Мбайт (15%)
Язык : Russian
Default : Да
Forced : Нет

Аудио #2
Идентификатор : 3
Формат : AC-3
Формат/Информация : Audio Coding 3
Расширение режима : CM (complete main)
Параметр Endianness формата : Big
Режим смешивания : Header stripping
Идентификатор кодека : A_AC3
Продолжительность : 48 м.
Вид битрейта : Постоянный
Битрейт : 448 Кбит/сек
Каналы : 6 каналов
Расположение каналов : Front: L C R, Side: L R, LFE
Частота : 48,0 КГц
Битовая глубина : 16 бит
Метод сжатия : С потерями
Размер потока : 157 Мбайт (15%)
Язык : English
Default : Нет
Forced : Нет

Текст
Идентификатор : 4
Формат : UTF-8
Идентификатор кодека : S_TEXT/UTF8
Идентификатор кодека/Информация : UTF-8 Plain Text
Язык : Russian
Default : Нет
Forced : Нет





   Похожие торренты   Торрент   Размер 
В этой теме нет новых непрочитанных сообщений. Мир без конца / World Without End [01x01-08 из 08] (2012) DVDRip от Youtracker | P

10 | 9

2.97 ГБ

В этой теме нет новых непрочитанных сообщений. Мир без конца / World Without End [01x01-08 из 08] (2012) DVDRip от Youtracker | P

11 | 2

7.6 ГБ

В этой теме нет новых непрочитанных сообщений. Мир без конца / World Without End [01x01-08 из 08] (2012) 2xDVD9 R5 от Youtracker | P

2 | 1

14.95 ГБ

В этой теме нет новых непрочитанных сообщений. Мир без конца / Бесконечный мир / World Without End [01-08 из 08] (2012) HDRip от -=HD-NET=-

165 | 36

4.59 ГБ

В этой теме нет новых непрочитанных сообщений. Мир без конца / Бесконечный мир / World Without End [s01] (2012) HDRip-AVC | Кубик в Кубе

34 | 48

7.03 ГБ

В этой теме нет новых непрочитанных сообщений. Мир без конца / Бесконечный мир / World Without End [s01] (2012) BDRip 720p от HDClub

30 | 77

27.71 ГБ

В этой теме нет новых непрочитанных сообщений. Марьина роща [01x01-16 из 16] (2012) DVDRip от Youtracker

91 | 15

7.43 ГБ




Вы не можете начинать темы
Вы не можете отвечать на сообщения
Вы не можете редактировать свои сообщения
Вы не можете удалять свои сообщения
Вы не можете добавлять вложения

Перейти:  
Для Мосгорсуда, Роскомнадзора и рекламодателей: mosgorsud-torrent[собачка]yandex.ru
 Вход
ppkBB3cker v.2 © 2008-2014 @ PPK
[ Time : 0.048s | 15 Queries | GZIP : Off ]

Торрент трекер RUTOR.IN, Не можете зайти на rutor.org? Какой новый адрес рутор? Какое зеркало рутор? Не работает rutor.org и зеркала? Тогда наш торрент специально для вас. Rutor.in неофициальное зеркало rutor. В случае если у Вас заблокирован rutor или вдруг Вы не можете на него зайти, то Вы без труда сможете скачать бесплатно и без рекламы последние новинки кино, игр, сериалов и прочего у нас, на Rutor.in. Не нужно использовать прокси, чтобы зайти на рутор, достаточно воспользоваться нашим ресурсом. Все новые фильмы, игры, сериалы, книги и музыка за 2013 и 2014 годы через торрент бесплатно. Скачивайте фильмы в хорошем качестве, игры для пк, xbox, playstation без регистрации. У нас вы найдете новые Зарубежные сериалы и Русские сериалы 2013, 2014, 2015 годов. Оставайтесь с нами, качайте любимые фильмы, игры, сериалы, книги и музыку.
cron