img image001 image001 image001 image001 image001 image001 image001 image001 image001 image001 image001 image001 image001 image001 image001

Planets Sun Sun Sun
Статистика раздачи
Автор: Снежана | Размер: 17.72 ГБ | Добавлен: 25 июл 2013
Раздают: 19    Качают: 17
Скачать торрент
Скачать торрент
Описание торрента

СообщениеДобавлено: 25 июл 2013 



Год выпуска: 2009
Страна: США, CBS
Жанр: Драма, ужасы, триллер
Режиссер: Сэнфорд Букставер, Рик Бота, Стив Бойум
В ролях: Элейн Кэссиди, Кристофер Горам, Мэтт Барр, Джина Холден, Кэти Кэссиди, Кассандра Соутелл, Брэндон Джей МакЛарен, Си Джей Томасон, Джим Бивер, Кэмерон Ричардсон и другие.

Описание:
Мини-сериал от CBS, рассказывающий о группе друзей и родственников, отправившихся на прекрасный остров, чтобы отпраздновать свадьбу. Остров отрезан от остального мира и знаменит тем, что семь лет назад на нем свирепствовал маньяк. И тут вдруг, один за другим, гости начинают погибать. Никто не знает, вернулся ли тот самый маньяк или это кто-то из них. Убежать нельзя, все пути назад на сушу отрезаны, но и доверять тоже никому нельзя, ведь возможно, что убийца находится рядом с тобой. 25 подозреваемых, 13 недель, 1 убийца.



Продолжительность: 13 Х ~00:40
Перевод: Русскоязычный многоголосый закадровый перевод (ТВ3 Россия)
Русские субтитры: нет
Английские субтитры: есть

Качество: WEB-DL 720p
Формат: MKV
Видео кодек: H.264
Аудио кодек: AC3
Видео: 1280x720 at 23.976 fps, MPEG-4 AVC, ~4000 Kbps avg
Аудио №1: 48 kHz, AC3, 2 (L,R) ch, ~192.00 kbps avg [RUS]
Аудио №2: 48 kHz, AC3, 3/2 (L,C,R,l,r) + LFE ch, ~384.00 kbps avg [ENG]

Сэмпл

General
Unique ID : 170338958203863840795232190242262047722 (0x8026170C35ACABABBB6124C415E35BEA)
Complete name : L:Serialharpers_island.s01.web-dl.720p.rus(tv3).eng.novafilm.tvharpers_island.s01e10.web-dl.720p.rus(tv3).eng.novafilm.tv.mkv
Format : Matroska
Format version : Version 2
File size : 1.36 GiB
Duration : 41mn 39s
Overall bit rate : 4 657 Kbps
Movie name : Harper's Island: s01e10 (WEB-DL 720p) - Released by Justin for NovaFiLM.TV
Encoded date : UTC 2010-05-04 21:16:40
Writing application : mkvmerge v2.9.5 ('Tu es le seul') built on Jun 7 2009 11:07:07
Writing library : libebml v0.7.7 + libmatroska v0.8.1

Video
ID : 1
Format : AVC
Format/Info : Advanced Video Codec
Format profile : High@L3.1
Format settings, CABAC : No
Format settings, ReFrames : 2 frames
Codec ID : V_MPEG4/ISO/AVC
Duration : 41mn 39s
Bit rate : 3 988 Kbps
Width : 1 280 pixels
Height : 720 pixels
Display aspect ratio : 16:9
Frame rate mode : Constant
Frame rate : 23.976 fps
Color space : YUV
Chroma subsampling : 4:2:0
Bit depth : 8 bits
Scan type : Progressive
Bits/(Pixel*Frame) : 0.180
Stream size : 1.16 GiB (86%)
Title : Season 1, Episode 10: Snap
Language : English
Default : Yes
Forced : No
Color primaries : BT.709
Transfer characteristics : BT.709
Matrix coefficients : BT.709

Audio #1
ID : 2
Format : AC-3
Format/Info : Audio Coding 3
Mode extension : CM (complete main)
Format settings, Endianness : Big
Codec ID : A_AC3
Duration : 41mn 39s
Bit rate mode : Constant
Bit rate : 192 Kbps
Channel(s) : 2 channels
Channel positions : Front: L R
Sampling rate : 48.0 KHz
Bit depth : 16 bits
Compression mode : Lossy
Stream size : 57.2 MiB (4%)
Title : Dolby Digital 2.0 @ 192 kbps |ТВ3|
Language : Russian
Default : Yes
Forced : No

Audio #2
ID : 3
Format : AC-3
Format/Info : Audio Coding 3
Mode extension : CM (complete main)
Format settings, Endianness : Big
Codec ID : A_AC3
Duration : 41mn 39s
Bit rate mode : Constant
Bit rate : 384 Kbps
Channel(s) : 6 channels
Channel positions : Front: L C R, Side: L R, LFE
Sampling rate : 48.0 KHz
Bit depth : 16 bits
Compression mode : Lossy
Stream size : 114 MiB (8%)
Title : Dolby Digital 5.1 @ 384 kbps
Language : English
Default : No
Forced : No

Text #1
ID : 4
Format : UTF-8
Codec ID : S_TEXT/UTF8
Codec ID/Info : UTF-8 Plain Text
Title : Forced
Language : Russian
Default : Yes
Forced : No

Text #2
ID : 5
Format : UTF-8
Codec ID : S_TEXT/UTF8
Codec ID/Info : UTF-8 Plain Text
Language : English
Default : No
Forced : No



   Похожие торренты   Торрент   Размер 
В этой теме нет новых непрочитанных сообщений. Остров Харпера / Harper's Island [01x01-13 из 13] (2009) HDTVRip-КПК | ТВ3

18 | 13

2.41 ГБ

В этой теме нет новых непрочитанных сообщений. Остров Харпера / Harper's Island [01x01-13 из 13] (2009) HDTVRip от Scarabey | ТВ3

93 | 22

4.43 ГБ

В этой теме нет новых непрочитанных сообщений. Остров Харпера / Harper's Island [S1] (2009) DVDRip | ТВ3

86 | 21

4.47 ГБ

В этой теме нет новых непрочитанных сообщений. Маленький остров / Small Island [01x01 из 02] (2009) HDTVRip 720p | ViruseProject

30 | 1

1.94 ГБ

В этой теме нет новых непрочитанных сообщений. Маленький остров / Small Island [01x01 из 02] (2009) HDTVRip | ViruseProject

30 | 0

1.03 ГБ

В этой теме нет новых непрочитанных сообщений. Маленький остров / Small Island [S01] (2009) HDTVRip 720p | ViruseProject

19 | 7

3.88 ГБ

В этой теме нет новых непрочитанных сообщений. Дикая Азия: Остров Волшебства / Wild Asia: Island Magic (2009) BDRip 720p

3 | 3

2.76 ГБ




Вы не можете начинать темы
Вы не можете отвечать на сообщения
Вы не можете редактировать свои сообщения
Вы не можете удалять свои сообщения
Вы не можете добавлять вложения

Перейти:  
Для Мосгорсуда, Роскомнадзора и рекламодателей: mosgorsud-torrent[собачка]yandex.ru
 Вход
ppkBB3cker v.2 © 2008-2014 @ PPK
[ Time : 0.564s | 14 Queries | GZIP : On ]

Торрент трекер RUTOR.IN, Не можете зайти на rutor.org? Какой новый адрес рутор? Какое зеркало рутор? Не работает rutor.org и зеркала? Тогда наш торрент специально для вас. Rutor.in неофициальное зеркало rutor. В случае если у Вас заблокирован rutor или вдруг Вы не можете на него зайти, то Вы без труда сможете скачать бесплатно и без рекламы последние новинки кино, игр, сериалов и прочего у нас, на Rutor.in. Не нужно использовать прокси, чтобы зайти на рутор, достаточно воспользоваться нашим ресурсом. Все новые фильмы, игры, сериалы, книги и музыка за 2013 и 2014 годы через торрент бесплатно. Скачивайте фильмы в хорошем качестве, игры для пк, xbox, playstation без регистрации. У нас вы найдете новые Зарубежные сериалы и Русские сериалы 2013, 2014, 2015 годов. Оставайтесь с нами, качайте любимые фильмы, игры, сериалы, книги и музыку.