img image001 image001 image001 image001 image001 image001 image001 image001 image001 image001 image001 image001 image001 image001 image001

Planets Sun Sun Sun
Статистика раздачи
Автор: Снежана | Размер: 2.43 ГБ | Добавлен: 25 июл 2013
Раздают: 2    Качают: 1
Скачать торрент
Скачать торрент
Описание торрента

СообщениеДобавлено: 25 июл 2013 

#77

КвестоПушествие / JourneyQuest

Страна: США
Жанр: Комедия, Фэнтези
Год выпуска: 2012
Продолжительность: ~10 мин

Перевод: Одноголосый закадровый
Cубтитры: Русские
Оригинальная аудиодорожка: Английский

Режиссер: Мэтт Вэнсил / Matt Vancil

В ролях: Christian Doyle, Anne Kennedy, Brian Lewis, Kevin Pitman, Emilie Rommel Shimkus, Nathan Rice, Bryan Bender, Scott C. Brown, Kevin Inouye, Samara Lerman, Jennifer Page, Matt Shimkus, Bob Sapp, Jen Page

Описание:
Продолжение нашей бестолковой четверки и их личного барда в новых приключениях или Комедийные приключения интеллектуальных орков, неумелых волшебников и святых зомби в истории о любви без ответа, разгорающихся чувств и сильно страстном героизме.

Релиз группы:

Доп. информация:

Перевод: Zarif Kurochkin, dimasanov, 5stilet5

Озвучивание Ворон работа над дорожкой Ворон

Качество видео: WEBRip 1080p - Сэмпл
Формат видео: MP4
Видео: AVC, 1920 x 1080 (16:9), 23.976 fps, 2847Kbps avg, 0.057 bit/pixel
Аудио: 44,1 kHz, AAC, 2/0 (L,R) ch, ~153 kbps (Русский)
Аудио 2: 44,1 kHz, AAC, 2/0 (L,R) ch, ~153 kbps (Английский)
Формат субтитров: srt | (отдельно)




Формат : MPEG-4
Профиль формата : Base Media
Идентификатор кодека : isom
Размер файла : 219 Мбайт
Продолжительность : 10 м.
Режим общего битрейта : Переменный
Общий поток : 3002 Кбит/сек
Дата кодирования : UTC 2012-12-30 22:25:50
Дата пометки : UTC 2012-12-30 22:25:50

Видео
Идентификатор : 1
Формат : AVC
Формат/Информация : Advanced Video Codec
Профиль формата : High@L4.0
Параметр CABAC формата : Да
Параметр ReFrames формата : 1 кадр
Параметр GOP формата : M=1, N=48
Идентификатор кодека : avc1
Идентификатор кодека/Информация : Advanced Video Coding
Продолжительность : 10 м.
Битрейт : 2847 Кбит/сек
Максимальный битрейт : 7023 Кбит/сек
Ширина : 1920 пикселей
Высота : 1080 пикселей
Соотношение сторон : 16:9
Режим частоты кадров : Постоянный
Частота кадров : 23,976 кадра/сек
Цветовое пространство : YUV
Субдискретизация насыщенности : 4:2:0
Битовая глубина : 8 бит
Тип развёртки : Прогрессивная
Бит/(Пиксели*Кадры) : 0.057
Размер потока : 208 Мбайт (95%)
Дата пометки : UTC 2012-12-30 22:26:00

Аудио
Идентификатор : 2
Формат : AAC
Формат/Информация : Advanced Audio Codec
Профиль формата : LC
Идентификатор кодека : 40
Продолжительность : 10 м.
Вид битрейта : Переменный
Битрейт : 153 Кбит/сек
Максимальный битрейт : 209 Кбит/сек
Каналы : 2 канала
Расположение каналов : Front: L R
Частота : 44,1 КГц
Метод сжатия : С потерями
Размер потока : 11,1 Мбайт (5%)
Язык : Russian
Дата кодирования : UTC 2012-12-30 22:26:00
Дата пометки : UTC 2012-12-30 22:26:00

Аудио #2
Идентификатор : 3
Формат : AAC
Формат/Информация : Advanced Audio Codec
Профиль формата : LC
Идентификатор кодека : 40
Продолжительность : 10 м.
Вид битрейта : Переменный
Битрейт : 152 Кбит/сек
Максимальный битрейт : 213 Кбит/сек
Каналы : 2 канала
Расположение каналов : Front: L R
Частота : 44,1 КГц
Метод сжатия : С потерями
Размер потока : 11,1 Мбайт (5%)
Язык : English
Дата кодирования : UTC 2012-12-31 10:32:57
Дата пометки : UTC 2012-12-31 10:32:58


Качество видео: WEBRip 720p (существует только такая версия этой серии)
Формат видео: MP4
Видео: AVC, 1280 x 720 (16:9), 23.976 fps, 1501 Kbps avg, 0.068 bit/pixel
Аудио: 44,1 kHz, AAC, 2/0 (L,R) ch, ~153 kbps (Русский)
Аудио 2: 44,1 kHz, AAC, 2/0 (L,R) ch, ~192 kbps (Английский)
Формат субтитров: srt | (отдельно)




Качество видео: WEBRip 720p (существует только такая версия этой серии)
Формат видео: MP4
Видео: AVC, 1280 x 720 (16:9), 23.976 fps, 1797 Kbps avg, 0.081 bit/pixel
Аудио: 44,1 kHz, AAC, 2/0 (L,R) ch, ~144 kbps (Русский)
Аудио 2: 44,1 kHz, AAC, 2/0 (L,R) ch, ~192 kbps (Английский)
Формат субтитров: srt | (отдельно)





Торрент обновлен! Добавлены заключительные серии сезона. Просьба перекачать торрент! И надеемся и ждем 3 сезон!



   Похожие торренты   Торрент   Размер 
В этой теме нет новых непрочитанных сообщений. КвестоПушествие / JourneyQuest [S01] (2010) WEBRip 1080p от BTT-TEAM

1 | 1

1.7 ГБ

В этой теме нет новых непрочитанных сообщений. Вайсленд / Viceland [01-02x01-06 из 40] WEB-DL, WEBRip 1080p | JimmyJ

0 | 2

6.27 ГБ

В этой теме нет новых непрочитанных сообщений. Вайсленд / Viceland [01-02x01-06 из 40] WEB-DL, WEBRip 1080p | JimmyJ

0 | 0

6.27 ГБ

В этой теме нет новых непрочитанных сообщений. Путь / The Path [02x01-05 из 13] (2017) WEBRip 1080p | IdeaFilm

2 | 12

7.96 ГБ

В этой теме нет новых непрочитанных сообщений. Миллиарды / Billions [02x01 из 12] (2017) WEBRip 1080p | Jaskier

28 | 3

3.15 ГБ

В этой теме нет новых непрочитанных сообщений. Путь / The Path [02x01 из 13] (2017) WEBRip 1080p | IdeaFilm

7 | 6

1.69 ГБ

В этой теме нет новых непрочитанных сообщений. Путь / The Path [02x01-02 из 13] (2017) WEBRip 1080p | IdeaFilm

3 | 4

2.99 ГБ




Вы не можете начинать темы
Вы не можете отвечать на сообщения
Вы не можете редактировать свои сообщения
Вы не можете удалять свои сообщения
Вы не можете добавлять вложения

Перейти:  
Для Мосгорсуда, Роскомнадзора и рекламодателей: mosgorsud-torrent[собачка]yandex.ru
 Вход
ppkBB3cker v.2 © 2008-2014 @ PPK
[ Time : 0.080s | 14 Queries | GZIP : Off ]

Торрент трекер RUTOR.IN, Не можете зайти на rutor.org? Какой новый адрес рутор? Какое зеркало рутор? Не работает rutor.org и зеркала? Тогда наш торрент специально для вас. Rutor.in неофициальное зеркало rutor. В случае если у Вас заблокирован rutor или вдруг Вы не можете на него зайти, то Вы без труда сможете скачать бесплатно и без рекламы последние новинки кино, игр, сериалов и прочего у нас, на Rutor.in. Не нужно использовать прокси, чтобы зайти на рутор, достаточно воспользоваться нашим ресурсом. Все новые фильмы, игры, сериалы, книги и музыка за 2013 и 2014 годы через торрент бесплатно. Скачивайте фильмы в хорошем качестве, игры для пк, xbox, playstation без регистрации. У нас вы найдете новые Зарубежные сериалы и Русские сериалы 2013, 2014, 2015 годов. Оставайтесь с нами, качайте любимые фильмы, игры, сериалы, книги и музыку.