img image001 image001 image001 image001 image001 image001 image001 image001 image001 image001 image001 image001 image001 image001 image001

Planets Sun Sun Sun
Статистика раздачи
Автор: Снежана | Размер: 2.14 ГБ | Добавлен: 25 июл 2013
Раздают: 184    Качают: 8
Скачать торрент
Скачать торрент
Описание торрента

СообщениеДобавлено: 25 июл 2013 

#77
Год выпуска: 2011
Производство: Россия, Соло-студия
Жанр: Военный
Продолжительность: серия ~ 00:52:00
Субтитры: нет

Режиссёр: Александр Высоковский

В ролях: Андрей Мерзликин, Петр Федоров, Петр Баранчеев, Сергей Бурунов, Лев Гольман, Полина Сыркина, Владас Багдонас и др.

Описание:
Лето 1944 года. Советские войска вплотную подошли к Городу, стратегически важному пункту немецкой обороны. Город сильно укреплён немцами, и штурм может привести к огромным потерям среди наступающих. Резидент разведки, действующий в Городе, передаёт информацию о том, что весь город заминирован немцами и будет взорван, когда в него вступят советские части. Разведгруппа, получившая от него информацию, уничтожена: в живых остался только один боец по прозвищу Художник. Его случайно находит в лесу под Городом другая группа разведчиков под руководством лейтенанта Папанина, работающая по своему заданию...





Качество: DVDRip - AVC
Формат: MKV

Видео: 720x384 (16:9), 25 fps, H264 ~ 1337 kbps avg, 0.193 bit/pixel
Аудио: Русский, 48 kHz, MP3, 2 ch, 128.00 kbps Constant

Раздача от:
Общее
Полное имя : Bez.prava.na.oschibku.2011Bez.prava.na.oschibku.2011.DVDRip-AVCBez.prava.na.oschibku_02.mkv
Формат : Matroska
Версия формата : Version 2
Размер файла : 548 Мбайт
Продолжительность : 52 м.
Общий поток : 1467 Кбит/сек
Название фильма : Bez prava na oschibku 02 seriya 2011 DVDRip-AVC AVP Studio
Дата кодирования : UTC 2012-04-25 20:09:59
Программа кодирования : mkvmerge v5.2.0 ('I can't explain') built on Dec 18 2011 18:12:03
Библиотека кодирования : libebml v1.2.3 + libmatroska v1.3.0

Видео
Идентификатор : 1
Формат : AVC
Формат/Информация : Advanced Video Codec
Профиль формата : High@L3.1
Параметр CABAC формата : Да
Параметр ReFrames формата : 16 кадров
Идентификатор кодека : V_MPEG4/ISO/AVC
Продолжительность : 52 м.
Битрейт : 1337 Кбит/сек
Ширина : 720 пикселей
Высота : 384 пикселя
Соотношение сторон : 1,875
Частота кадров : 25,000 кадров/сек
Цветовое пространство : YUV
Субдискретизация насыщенности : 4:2:0
Битовая глубина : 8 бит
Тип развёртки : Прогрессивная
Бит/(Пиксели*Кадры) : 0.193
Размер потока : 489 Мбайт (89%)
Заголовок : Источник DVD
Библиотека кодирования : x264 core 112 r1834 a51816a
Настройки программы : cabac=1 / ref=16 / deblock=1:-1:-1 / analyse=0x3:0x133 / me=umh / subme=10 / psy=1 / psy_rd=1.00:0.10 / mixed_ref=1 / me_range=24 / chroma_me=1 / trellis=2 / 8x8dct=1 / cqm=0 / deadzone=21,11 / fast_pskip=1 / chroma_qp_offset=-3 / threads=12 / sliced_threads=0 / nr=0 / decimate=1 / interlaced=0 / constrained_intra=0 / bframes=8 / b_pyramid=2 / b_adapt=2 / b_bias=0 / direct=3 / weightb=1 / open_gop=0 / weightp=2 / keyint=250 / keyint_min=25 / scenecut=40 / intra_refresh=0 / rc_lookahead=60 / rc=2pass / mbtree=1 / bitrate=1337 / ratetol=1.0 / qcomp=0.60 / qpmin=0 / qpmax=51 / qpstep=4 / cplxblur=20.0 / qblur=0.5 / ip_ratio=1.40 / aq=1:1.00
Язык : Russian
Default : Да
Forced : Нет

Аудио
Идентификатор : 2
Формат : MPEG Audio
Версия формата : Version 1
Профиль формата : Layer 3
Идентификатор кодека : A_MPEG/L3
Идентификатор кодека/Подсказка : MP3
Продолжительность : 52 м.
Вид битрейта : Постоянный
Битрейт : 128 Кбит/сек
Каналы : 2 канала
Частота : 48,0 КГц
Метод сжатия : С потерями
Размер потока : 47,8 Мбайт (9%)
Заголовок : Источник DVD
Библиотека кодирования : L3.99r
Настройки программы : -m s -V 4 -q 2 -lowpass 17 -b 128
Язык : Russian
Default : Да
Forced : Нет





   Похожие торренты   Торрент   Размер 
В этой теме нет новых непрочитанных сообщений. Без права на ошибку: Операция "Город" [01-04] (2011) DVDRip

227 | 22

1.37 ГБ

В этой теме нет новых непрочитанных сообщений. Без права на ошибку: Операция "Город" [01-04 из 04] (2011) DVDRip

36 | 6

2.73 ГБ

В этой теме нет новых непрочитанных сообщений. Без права на ошибку [01-04 из 04] (2010) DVDRip-AVC | от Youtracker

251 | 13

2.91 ГБ

В этой теме нет новых непрочитанных сообщений. Без права на ошибку [01-04 из 04] (2010) DVD9 от Youtracker | R5 | лицензия

1 | 37

7.75 ГБ

В этой теме нет новых непрочитанных сообщений. Сапёры / Без права на ошибку (2007) DVDRip от Files-x

83 | 9

1.37 ГБ

В этой теме нет новых непрочитанных сообщений. Без права на ошибку (1974) SATRip-AVC от ExKinoRay

15 | 10

939.02 МБ

В этой теме нет новых непрочитанных сообщений. Без права на ошибку [01-02 из 02] (2016) HDTVRip от GeneralFilm

4 | 0

1.45 ГБ




Вы не можете начинать темы
Вы не можете отвечать на сообщения
Вы не можете редактировать свои сообщения
Вы не можете удалять свои сообщения
Вы не можете добавлять вложения

Перейти:  
Для Мосгорсуда, Роскомнадзора и рекламодателей: mosgorsud-torrent[собачка]yandex.ru
 Вход
ppkBB3cker v.2 © 2008-2014 @ PPK
[ Time : 0.088s | 14 Queries | GZIP : Off ]

Торрент трекер RUTOR.IN, Не можете зайти на rutor.org? Какой новый адрес рутор? Какое зеркало рутор? Не работает rutor.org и зеркала? Тогда наш торрент специально для вас. Rutor.in неофициальное зеркало rutor. В случае если у Вас заблокирован rutor или вдруг Вы не можете на него зайти, то Вы без труда сможете скачать бесплатно и без рекламы последние новинки кино, игр, сериалов и прочего у нас, на Rutor.in. Не нужно использовать прокси, чтобы зайти на рутор, достаточно воспользоваться нашим ресурсом. Все новые фильмы, игры, сериалы, книги и музыка за 2013 и 2014 годы через торрент бесплатно. Скачивайте фильмы в хорошем качестве, игры для пк, xbox, playstation без регистрации. У нас вы найдете новые Зарубежные сериалы и Русские сериалы 2013, 2014, 2015 годов. Оставайтесь с нами, качайте любимые фильмы, игры, сериалы, книги и музыку.