img image001 image001 image001 image001 image001 image001 image001 image001 image001 image001 image001 image001 image001 image001 image001

Planets Sun Sun Sun
Статистика раздачи
Автор: Снежана | Размер: 7.53 ГБ | Добавлен: 25 июл 2013
Раздают: 6    Качают: 6
Скачать торрент
Скачать торрент
Описание торрента

СообщениеДобавлено: 25 июл 2013 

#77

Информация о фильме
Название: Ответный удар
Оригинальное название: Strike back
Год выхода: 2012
Жанр: Боевик, триллер, драма
Режиссер: Дэниэл Персивал
В ролях: Рашан Стоун, Филип Уинчестер, Салливан Степлтон, Аманда Милинг, Мишель Лукес, Джими Мистри, Шэйн Тейлор, Эндрю Линкольн, Джоди Мей, Рона Митра и др.

О фильме:
3-й сезон британского сериала "Ответный удар" под названием "Отмщение" продолжает повествовать о работе оперативников британской разведки, участвующих в опасных боевых операциях в различных частях мира. В новых сериях идет рассказ о боевиках лояльных Хусейну Ваабри, печально известному сомалийскому командиру, которые напали на эскорт посольства, похитив британского дипломата и младшего атташе. Оперативник 20-го отдела, Дэмиен Скотт, отправляется в Могадишо, чтобы спасти их. Тем временем Майкл Стоунбридж пытается привыкнуть к своей новой жизни вне 20-го отдела.

Страна: Великобритания
Студия: Double D Productions, Ingenious Broadcasting, Left Bank Pictures
Продолжительность: 10 x ~ 00:44:00
Перевод: Профессиональный (многоголосый закадровый) - BaibaKo

Перевод: Ray
Озвучка: Татьяна Оболевич, Владимир Курдов и Александр Фурман
Монтаж: Vitall Digitall

Файл
Кодек: XviD
Качество: HDTVRip
Видео: ~ 1520 Кбит/с, 720x400
Звук:
Аудио Rus: AC3, 6 ch, 384 Кбит/с
Аудио Eng: AC3, 6 ch, 384 Кбит/с
Субтитры: Русские Нотабеноид (главный Nikopol)
Общее
Полное имя : Strike.Back.s03.e01-10.HDTVRip.BaibaKoStrike.Back.s03e01-02.XviD.HDTVRip.avi
Формат : AVI
Формат/Информация : Audio Video Interleave
Профиль формата : OpenDML
Настройки формата : rec
Размер файла : 1,46 Гбайт
Продолжительность : 1 ч. 31 м.
Общий поток : 2285 Кбит/сек
Название фильма : Created by DeathN2 for Кинозал.ТВ
Программа кодирования : AVI-Mux GUI 1.17.8, Aug 30 2008 12:36:58

Видео
Идентификатор : 0
Формат : MPEG-4 Visual
Профиль формата : Advanced Simple@L5
Параметр BVOP формата : 2
Параметр QPel формата : Нет
Параметр GMC формата : Без точки перехода
Параметр матрицы формата : Default (H.263)
Идентификатор кодека : XVID
Идентификатор кодека/Подсказка : XviD
Продолжительность : 1 ч. 31 м.
Битрейт : 1510 Кбит/сек
Ширина : 720 пикселей
Высота : 400 пикселей
Соотношение сторон : 16:9
Частота кадров : 23,976 кадра/сек
Цветовое пространство : YUV
Субдискретизация насыщенности : 4:2:0
Битовая глубина : 8 бит
Тип развёртки : Прогрессивная
Метод сжатия : С потерями
Бит/(Пиксели*Кадры) : 0.219
Размер потока : 991 Мбайт (66%)
Библиотека кодирования : XviD 1.2.1 (UTC 2008-12-04)

Аудио #1
Идентификатор : 1
Формат : AC-3
Формат/Информация : Audio Coding 3
Расширение режима : CM (complete main)
Параметр Endianness формата : Big
Идентификатор кодека : 2000
Продолжительность : 1 ч. 31 м.
Вид битрейта : Постоянный
Битрейт : 384 Кбит/сек
Каналы : 6 каналов
Расположение каналов : Front: L C R, Side: L R, LFE
Частота : 48,0 КГц
Битовая глубина : 16 бит
Метод сжатия : С потерями
Размер потока : 252 Мбайт (17%)
Выравнивание : Соединение по промежуткам
Продолжительность промежутка : 64 мс. (1,53 видеокадра)
Время предзагрузки промежутка : 192 мс.

Аудио #2
Идентификатор : 2
Формат : AC-3
Формат/Информация : Audio Coding 3
Расширение режима : CM (complete main)
Параметр Endianness формата : Big
Идентификатор кодека : 2000
Продолжительность : 1 ч. 31 м.
Вид битрейта : Постоянный
Битрейт : 384 Кбит/сек
Каналы : 6 каналов
Расположение каналов : Front: L C R, Side: L R, LFE
Частота : 48,0 КГц
Битовая глубина : 16 бит
Метод сжатия : С потерями
Размер потока : 252 Мбайт (17%)
Выравнивание : Соединение по промежуткам
Продолжительность промежутка : 64 мс. (1,53 видеокадра)
Время предзагрузки промежутка : 192 мс.





   Похожие торренты   Торрент   Размер 
В этой теме нет новых непрочитанных сообщений. Ответный удар / Strike back [S03] (2012) HDTVRip | BaibaKo

1 | 2

6.27 ГБ

В этой теме нет новых непрочитанных сообщений. Ответный удар / Strike back [S03] (2012) HDTVRip | BaibaKo

19 | 8

3.91 ГБ

В этой теме нет новых непрочитанных сообщений. Ответный удар / Strike back [S03] (2012) HDTVRip 720p | BaibaKo

4 | 5

18.19 ГБ

В этой теме нет новых непрочитанных сообщений. Ответный удар / Strike back [S01] (2010) HDTVRip | P

59 | 10

2.4 ГБ

В этой теме нет новых непрочитанных сообщений. Ответный удар / Strike Back [s05] (2015) HDTVRip | Baibako

379 | 411

5.79 ГБ

В этой теме нет новых непрочитанных сообщений. Ответный удар / Strike Back [S02] (2011) HDTVRip | Gravi-TV

13 | 9

4.5 ГБ

В этой теме нет новых непрочитанных сообщений. Ответный удар / Strike back [S01-04] (2010-2013) HDRip, HDTVRip | P

226 | 49

25.16 ГБ




Вы не можете начинать темы
Вы не можете отвечать на сообщения
Вы не можете редактировать свои сообщения
Вы не можете удалять свои сообщения
Вы не можете добавлять вложения

Перейти:  
Для Мосгорсуда, Роскомнадзора и рекламодателей: mosgorsud-torrent[собачка]yandex.ru
 Вход
ppkBB3cker v.2 © 2008-2014 @ PPK
[ Time : 0.055s | 16 Queries | GZIP : Off ]

cron