img image001 image001 image001 image001 image001 image001 image001 image001 image001 image001 image001 image001 image001 image001 image001

Planets Sun Sun Sun
Статистика раздачи
Автор: Снежана | Размер: 6.39 ГБ | Добавлен: 25 июл 2013
Раздают: 11    Качают: 3
Скачать торрент
Скачать торрент
Описание торрента

СообщениеДобавлено: 25 июл 2013 

#77

Название: Расследования Мёрдока
Оригинальное название: Murdoch Mysteries
Год выпуска: 2012
Страна: Канада, Великобритания
Жанр: Детектив
Продолжительность: 13 х ~ 00:45:00
Перевод: Любительский двухголосый закадровый - DreamRecords
Субтитры: Отсутствуют
Режиссер: Харви Кросслэнд, Пол Фокс, Элинор Линдо

В ролях: Янник Биссон, Томас Крэйг, Джонни Харрис, Хелен Джо, Лаклан Мёрдок, Джорджина Рейли, Джонатан Уоттон, Арвен Хампрейс, Найджел Беннетт, Питер Стеббингс

Описание: Конец XIX-го века. На улицах Торонто происходят странные убийства. Детектив Уильям Мёрдок раскрывает их с помощью новой науки - криминалистики. У него есть союзник - судебный врач Джейн Огден. Ни юный возраст, ни хорошее воспитание, ни пышные юбки не мешают ей вскрывать трупы и проводить экспертизы. По мотивам романов Моррин Дженнингс (Maureen Jennings).



Перевод: Ольга Галайда
Озвучка: Владислав Данилов, Маргарита Ремейкайте
Работа со звуком: Алексей Фокин
Рип видео: Алексей Фокин



Качество: HDTVRip
Формат: AVI
Видео кодек: XviD
Аудио кодек: MP3
Видео: 720x400, 23.976 fps, 1 295 Kbps, 0.188 bit/pixel
Аудио: MP3, 48 kHz, 2 ch, 192 kbps

Добавлена 13-ая серия. Сезон полностью.

01. Murdoch of the Klondike
02. Back and to the Left
03. Evil Eye of Egypt
04. War on Terror
05. Murdoch at the Opera
06. Who Killed the Electric Carriage?
07. Stroll on the Wild Side part 1
08. Stroll on the Wild Side Part 2
09. Invention Convention
10. Staircase to Heaven
11. Murdoch in Toyland
12. Murdoch Night in Canada
Format : AVI
Format/Info : Audio Video Interleave
File size : 510 MiB
Duration : 47mn 39s
Overall bit rate : 1 495 Kbps
Writing application : VirtualDubModRus 1.5.10.2 (build 2542/release)
Writing library : VirtualDubMod build 2542/release

Video
ID : 0
Format : MPEG-4 Visual
Format profile : Advanced Simple@L5
Format settings, BVOP : 1
Format settings, QPel : No
Format settings, GMC : No warppoints
Format settings, Matrix : Default (MPEG)
Codec ID : XVID
Codec ID/Hint : XviD
Duration : 47mn 39s
Bit rate : 1 294 Kbps
Width : 720 pixels
Height : 400 pixels
Display aspect ratio : 16:9
Frame rate : 23.976 fps
Color space : YUV
Chroma subsampling : 4:2:0
Bit depth : 8 bits
Scan type : Progressive
Compression mode : Lossy
Bits/(Pixel*Frame) : 0.187
Stream size : 441 MiB (87%)
Writing library : XviD 64

Audio
ID : 1
Format : MPEG Audio
Format version : Version 1
Format profile : Layer 3
Mode : Joint stereo
Codec ID : 55
Codec ID/Hint : MP3
Duration : 47mn 39s
Bit rate mode : Constant
Bit rate : 192 Kbps
Channel(s) : 2 channels
Sampling rate : 48.0 KHz
Compression mode : Lossy
Stream size : 65.5 MiB (13%)
Alignment : Aligned on interleaves
Interleave, duration : 42 ms (1.00 video frame)
Interleave, preload duration : 504 ms

Релиз от:



   Похожие торренты   Торрент   Размер 
В этой теме нет новых непрочитанных сообщений. Расследования Мердока / Murdoch Mysteries [s05] (2012) BDRip | DreamRecords

29 | 17

7.49 ГБ

В этой теме нет новых непрочитанных сообщений. Расследования Мердока / Murdoch Mysteries [s05] (2012) BDRip-AVC | DreamRecords

30 | 17

9.51 ГБ

В этой теме нет новых непрочитанных сообщений. Расследования Мердока / Murdoch Mysteries [06х01-09 из 13] (2013) HDTVRip | DreamRecords

26 | 12

4.1 ГБ

В этой теме нет новых непрочитанных сообщений. Расследования Мердока / Murdoch Mysteries [06х01-09 из 13] (2013) HDTVRip 720p | DreamRecords

2 | 5

11.24 ГБ

В этой теме нет новых непрочитанных сообщений. Расследования Мердока / Murdoch Mysteries [s07х01-14 из 18] (2013) HDTVRip 720p | DreamRecords

17 | 21

16.29 ГБ

В этой теме нет новых непрочитанных сообщений. Расследования Мердока / Murdoch Mysteries [s06] (2013) BDRip-AVC | DreamRecords

29 | 35

8.78 ГБ

В этой теме нет новых непрочитанных сообщений. Расследования Мердока / Murdoch Mysteries [s06] (2013) BDRip | DreamRecords

30 | 25

6.92 ГБ




Вы не можете начинать темы
Вы не можете отвечать на сообщения
Вы не можете редактировать свои сообщения
Вы не можете удалять свои сообщения
Вы не можете добавлять вложения

Перейти:  
Для Мосгорсуда, Роскомнадзора и рекламодателей: mosgorsud-torrent[собачка]yandex.ru
 Вход
ppkBB3cker v.2 © 2008-2014 @ PPK
[ Time : 0.049s | 15 Queries | GZIP : Off ]

cron