img image001 image001 image001 image001 image001 image001 image001 image001 image001 image001 image001 image001 image001 image001 image001

Planets Sun Sun Sun
Статистика раздачи
Автор: Снежана | Размер: 2.79 ГБ | Добавлен: 25 июл 2013
Раздают: 1    Качают: 1
Скачать торрент
Скачать торрент
Описание торрента

СообщениеДобавлено: 25 июл 2013 

#77

Название: Даллас
Оригинальное название: Dallas
Год выпуска: 2013
Жанр: Драма
Режиссер: Стив Робин
В ролях: Ларри Хэгмэн, Патрик Даффи, Джош Хендерсон, Линда Грэй, Джесси Меткалф, Джордана Брюстер, Джули Гонсало, Бренда Стронг

Описание: Сюжет разворачивается вокруг богатой техасской семьи Юингов, владеющей нефтяным бизнесом «Юинг Ойл» и ранчо со скотоводством. Сериал является продолжением одноименного телесериала, выходившего с 1978 по 1991 год



Страна: США
Продолжительность: 02 x ~ 00:45:00
Перевод: Профессиональный (двухголосый, закадровый) - NewStudio
Субтитры: нет

Озвучка: Юлия Котурбаш, Артём Мирон
Перевод: Tigrena
Подготовка видео: Koss
Работа со звуком: Baggio
Постер: Vortex

Качество: WEB-DL 720p
Формат: MKV
Видео: AVC, 3985 kb/s, 1280x720
Аудио rus: AC3, 2ch, 192kbs
Аудио eng: AC3, 6ch, 384kbs

01. Линии фронта
Формат : Matroska
Размер файла : 1,41 Гбайт
Продолжительность : 43 м.
Общий поток : 4654 Кбит/сек
Дата кодирования : UTC 2013-02-17 08:55:53
Программа кодирования : mkvmerge v6.0.0 ('Coming Up For Air') built on Jan 20 2013 09:52:00
Библиотека кодирования : libebml v1.3.0 + libmatroska v1.4.0

Видео
Идентификатор : 1
Формат : AVC
Формат/Информация : Advanced Video Codec
Профиль формата : High@L3.1
Параметр CABAC формата : Нет
Параметр ReFrames формата : 2 кадра
Параметры GOP формата : M=2, N=48
Идентификатор кодека : V_MPEG4/ISO/AVC
Продолжительность : 43 м.
Битрейт : 3985 Кбит/сек
Ширина : 1280 пикс.
Высота : 720 пикс.
Соотношение сторон : 16:9
Частота кадров : 23,976 кадр/сек
Цветовое пространство : YUV
Подвыборка цветности : 4:2:0
Битовая глубина : 8 бит
Тип развёртки : Прогрессивная
Бит/(Пиксели*Кадры) : 0.180
Размер потока : 1,20 Гбайт (86%)
Язык : English
Основные цвета : BT.709-5, BT.1361, IEC 61966-2-4, SMPTE RP177
Характеристики трансфера : BT.709-5, BT.1361
Коэффициенты матрицы : BT.709-5, BT.1361, IEC 61966-2-4 709, SMPTE RP177

Аудио #1
Идентификатор : 2
Формат : AC-3
Формат/Информация : Audio Coding 3
Расширение режима : CM (complete main)
Идентификатор кодека : A_AC3
Продолжительность : 43 м.
Вид битрейта : Постоянный
Битрейт : 192 Кбит/сек
Каналы : 2 канала
Расположение каналов : Front: L R
Частота : 48,0 КГц
Битовая глубина : 16 бит
Метод сжатия : С потерями
Размер потока : 59,4 Мбайт (4%)
Язык : Russian

Аудио #2
Идентификатор : 3
Формат : AC-3
Формат/Информация : Audio Coding 3
Расширение режима : CM (complete main)
Идентификатор кодека : A_AC3
Продолжительность : 43 м.
Вид битрейта : Постоянный
Битрейт : 384 Кбит/сек
Каналы : 6 каналов
Расположение каналов : Front: L C R, Side: L R, LFE
Частота : 48,0 КГц
Битовая глубина : 16 бит
Метод сжатия : С потерями
Размер потока : 119 Мбайт (8%)
Язык : English



Релиз от:



   Похожие торренты   Торрент   Размер 
В этой теме нет новых непрочитанных сообщений. Даллас / Dallas [02x01-02 из 10] (2013) WEB-DLRip | NewStudio

0 | 2

1000.07 МБ

В этой теме нет новых непрочитанных сообщений. Даллас / Dallas [02x01-02] (2013) WEB-DLRip | NewStudio

0 | 1

1000.07 МБ

В этой теме нет новых непрочитанных сообщений. Даллас / Dallas [01х01-10] (2012) WEB-DLRip | NewStudio

2 | 2

5.52 ГБ

В этой теме нет новых непрочитанных сообщений. Даллас / Dallas [01х01] (2012) WEB-DLRip 720р | NewStudio

0 | 2

1.89 ГБ

В этой теме нет новых непрочитанных сообщений. Даллас / Dallas [01х01-10] (2012) WEB-DLRip 720р | NewStudio

1 | 1

14.6 ГБ

В этой теме нет новых непрочитанных сообщений. Даллас / Dallas [01х02] (2012) WEB-DLRip 720р | NewStudio

0 | 1

1.45 ГБ

В этой теме нет новых непрочитанных сообщений. Даллас / Dallas (1950) DVDRip от Generalfilm

1 | 2

1.37 ГБ




Вы не можете начинать темы
Вы не можете отвечать на сообщения
Вы не можете редактировать свои сообщения
Вы не можете удалять свои сообщения
Вы не можете добавлять вложения

Перейти:  
Для Мосгорсуда, Роскомнадзора и рекламодателей: mosgorsud-torrent[собачка]yandex.ru
 Вход
ppkBB3cker v.2 © 2008-2014 @ PPK
[ Time : 0.106s | 15 Queries | GZIP : Off ]

Торрент трекер RUTOR.IN, Не можете зайти на rutor.org? Какой новый адрес рутор? Какое зеркало рутор? Не работает rutor.org и зеркала? Тогда наш торрент специально для вас. Rutor.in неофициальное зеркало rutor. В случае если у Вас заблокирован rutor или вдруг Вы не можете на него зайти, то Вы без труда сможете скачать бесплатно и без рекламы последние новинки кино, игр, сериалов и прочего у нас, на Rutor.in. Не нужно использовать прокси, чтобы зайти на рутор, достаточно воспользоваться нашим ресурсом. Все новые фильмы, игры, сериалы, книги и музыка за 2013 и 2014 годы через торрент бесплатно. Скачивайте фильмы в хорошем качестве, игры для пк, xbox, playstation без регистрации. У нас вы найдете новые Зарубежные сериалы и Русские сериалы 2013, 2014, 2015 годов. Оставайтесь с нами, качайте любимые фильмы, игры, сериалы, книги и музыку.