img image001 image001 image001 image001 image001 image001 image001 image001 image001 image001 image001 image001 image001 image001 image001

Planets Sun Sun Sun
Статистика раздачи
Автор: Снежана | Размер: 6.55 ГБ | Добавлен: 25 июл 2013
Раздают: 83    Качают: 8
Скачать торрент
Скачать торрент
Описание торрента

СообщениеДобавлено: 25 июл 2013 

#77

Название: Гранд Отель
Оригинальное название: Gran Hotel
Год выпуска: 2012
Страна: Испания
Жанр: Драма
Продолжительность: 08 х ~ 01:15:00
Перевод: Профессиональный (многоголосый закадровый) - DreamRecords
Субтитры: Нет
Режиссер: Карлос Седес, Сильвия Квир, Хорхе Санчес-Кабесудо

В ролях: Йон Гонсалес (Хулио Ольмедо), Амайя Саламанка (Алисия Аларкон), Адриана Осорес (донья Тереса), Педро Алонсо (Диего), Элой Асорин (Хавьер Аларкон), Феле Мартинес (Альфредо Вергара), Иван Моралес (Себастьян)

Описание: Действие происходит в 1905 году. Молодой человек Хулио приезжает в идиллическое место Гранд отель, где он намерен выяснить причины исчезновение своей сестры. Но на пути его расследования встретится Алисия Аларкон, член семьи владельца отеля, и которая станет единственным человеком, готовым помочь ему раскрыть правду. Между ними начнется невозможная история любви. Им мешает то обстоятельство, что Алисия помолвлена с Диего, амбициозным юношей, который готов на всё, чтобы стать директором Гранд Отеля…



Перевод: Дарья Селиверстова
Озвучка: Михаил Суслов, Владимир Чистохин, Светлана Чистохина, Мила Мирелли
Работа со звуком: Алексей Фокин



Качество: HDTVRip
Формат: AVI
Видео кодек: XviD
Аудио кодек: MP3
Видео: 720x400, 1 245 Kbps, 25 fps, 0.173 bit/pixel
Аудио rus: MP3, 48 kHz, 2 ch, 192 kbps

Добавлена 08-ая серия. Сезон полностью.

01. Свет и тени / Luces y sombras
02. Плач в ночи / Un llanto en la noche
03. Секрет / El secreto
04. Из прошлого / Retorno al pasado
05. Сесилия / Cecilia
06. Годовщина / El aniversario
07. Крещение / El bautizo
Format : AVI
Format/Info : Audio Video Interleave
File size : 811 MiB
Duration : 1h 18mn
Overall bit rate : 1 447 Kbps
Writing library : VirtualDub build 32706/release

Video
ID : 0
Format : MPEG-4 Visual
Format profile : Advanced Simple@L5
Format settings, BVOP : 1
Format settings, QPel : No
Format settings, GMC : No warppoints
Format settings, Matrix : Default (MPEG)
Codec ID : XVID
Codec ID/Hint : XviD
Duration : 1h 18mn
Bit rate : 1 245 Kbps
Width : 720 pixels
Height : 400 pixels
Display aspect ratio : 16:9
Frame rate : 25.000 fps
Color space : YUV
Chroma subsampling : 4:2:0
Bit depth : 8 bits
Scan type : Progressive
Compression mode : Lossy
Bits/(Pixel*Frame) : 0.173
Stream size : 698 MiB (86id=863 alt=':Wacko:'
Writing library : XviD 64

Audio
ID : 1
Format : MPEG Audio
Format version : Version 1
Format profile : Layer 3
Mode : Joint stereo
Codec ID : 55
Codec ID/Hint : MP3
Duration : 1h 18mn
Bit rate mode : Constant
Bit rate : 192 Kbps
Channel(s) : 2 channels
Sampling rate : 48.0 KHz
Compression mode : Lossy
Stream size : 108 MiB (13id=863 alt=':Wacko:'
Alignment : Split accross interleaves
Interleave, duration : 40 ms (1.00 video frame)
Interleave, preload duration : 500 ms

Релиз от:



   Похожие торренты   Торрент   Размер 
В этой теме нет новых непрочитанных сообщений. Гранд Отель / Gran Hotel [03х01-05 из 08] (2013) HDTVRip | DreamRecords

20 | 10

4.3 ГБ

В этой теме нет новых непрочитанных сообщений. Гранд Отель / Gran Hotel [S02] (2012) HDTV 720p | DreamRecords

6 | 4

16.88 ГБ

В этой теме нет новых непрочитанных сообщений. Гранд Отель / Gran Hotel [03х01-05 из 08] (2013) HDTV 720p | DreamRecords

35 | 5

7.05 ГБ

В этой теме нет новых непрочитанных сообщений. Гранд Отель / Gran Hotel [S03] (2013) HDTVRip | Sub

0 | 2

19.21 ГБ

В этой теме нет новых непрочитанных сообщений. Гранд Отель / Gran Hotel [03х06-13] (2013) HDTVRip | L1

60 | 21

9.38 ГБ

В этой теме нет новых непрочитанных сообщений. Гранд Отель / Gran Hotel [S03] (2013) HDTVRip 720p | Sub

7 | 16

33.77 ГБ

В этой теме нет новых непрочитанных сообщений. Гранд Отель / Gran Hotel [S01-03] (2011-2013) HDTVRip-AVC | D, P

26 | 52

38.95 ГБ




Вы не можете начинать темы
Вы не можете отвечать на сообщения
Вы не можете редактировать свои сообщения
Вы не можете удалять свои сообщения
Вы не можете добавлять вложения

Перейти:  
Для Мосгорсуда, Роскомнадзора и рекламодателей: mosgorsud-torrent[собачка]yandex.ru
 Вход
ppkBB3cker v.2 © 2008-2014 @ PPK
[ Time : 0.053s | 15 Queries | GZIP : Off ]

Торрент трекер RUTOR.IN, Не можете зайти на rutor.org? Какой новый адрес рутор? Какое зеркало рутор? Не работает rutor.org и зеркала? Тогда наш торрент специально для вас. Rutor.in неофициальное зеркало rutor. В случае если у Вас заблокирован rutor или вдруг Вы не можете на него зайти, то Вы без труда сможете скачать бесплатно и без рекламы последние новинки кино, игр, сериалов и прочего у нас, на Rutor.in. Не нужно использовать прокси, чтобы зайти на рутор, достаточно воспользоваться нашим ресурсом. Все новые фильмы, игры, сериалы, книги и музыка за 2013 и 2014 годы через торрент бесплатно. Скачивайте фильмы в хорошем качестве, игры для пк, xbox, playstation без регистрации. У нас вы найдете новые Зарубежные сериалы и Русские сериалы 2013, 2014, 2015 годов. Оставайтесь с нами, качайте любимые фильмы, игры, сериалы, книги и музыку.