img image001 image001 image001 image001 image001 image001 image001 image001 image001 image001 image001 image001 image001 image001 image001 image001

Planets Sun Sun Sun
Статистика раздачи
Автор: Снежана | Размер: 7.43 ГБ | Добавлен: 25 июл 2013
Раздают: 91    Качают: 15
Скачать торрент
Скачать торрент
Описание торрента

СообщениеДобавлено: 25 июл 2013 

#77
Страна: Россия
Год выпуска: 2012
Жанр: драма, детектив, история

Продолжительность: 16 серий ~ 00:44:30

Режиссер: Александр Хван

В ролях: Александр Домогаров, Евгения Крюкова, Виталий Кудрявцев, Сергей Комаров, Савва Гусев, Елена Доронина, Яна Львова, Наталья Литвинова, Виктор Тереля, Артем Лысков...

Описание: Оперативник МУРа Константин Трошин возвращается с фронта после победы в Великой Отечественной войне и узнает, что в милиции больше не работает. Причина — конфликт с влиятельным генералом НКГБ СССР. Но без милиции Трошин не представляет свою жизнь. Ему удается устроиться участковым в самом неблагополучном районе Москвы — Марьиной Роще. В силу личных проблем, Трошин вынужден поселиться в коммуналке, здесь же, в Марьиной Роще. Находясь в эпицентре криминальной среды и тесно сойдясь с ее обитателями, Трошин распутывает хладнокровные убийства, дерзкие налеты и хитроумные аферы. Но не преступники цель Трошина. Он ставит перед собой задачу — искоренить само преступление. Находясь на позиции участкового, он постепенно становится третейским судьей, которому люди доверяют отделять добро от зла.


Качество видео: DVDRip [2 x DVD9 R5]
Формат видео: AVI

Видео: 688x384 (16:9), XViD 1340 Кбит/сек 25,000 fps / Бит/(Пиксели*Кадры): 0.203
Аудио: Dolby Digital Audio Russian 96 kbps 2.0 / 48 kHz

Раздача от:
General
Complete name : Maryina.roshha.2012.O.DVDRip_[Youtracker]_by_avproh/01.avi
Format : AVI
Format/Info : Audio Video Interleave
File size : 463 MiB
Duration : 44mn 45s
Overall bit rate : 1 445 Kbps
Writing application : VirtualDubModRus 1.5.10.2 (build 2542/release)
Writing library : VirtualDubMod build 2542/release

Video
ID : 0
Format : MPEG-4 Visual
Format profile : Advanced Simple@L5
Format settings, BVOP : 1
Format settings, QPel : No
Format settings, GMC : No warppoints
Format settings, Matrix : Custom
Codec ID : XVID
Codec ID/Hint : XviD
Duration : 44mn 45s
Bit rate : 1 339 Kbps
Width : 688 pixels
Height : 384 pixels
Display aspect ratio : 16:9
Frame rate : 25.000 fps
Color space : YUV
Chroma subsampling : 4:2:0
Bit depth : 8 bits
Scan type : Progressive
Compression mode : Lossy
Bits/(Pixel*Frame) : 0.203
Stream size : 429 MiB (93%)
Writing library : XviD 64

Audio
ID : 1
Format : AC-3
Format/Info : Audio Coding 3
Mode extension : CM (complete main)
Format settings, Endianness : Big
Codec ID : 2000
Duration : 44mn 44s
Bit rate mode : Constant
Bit rate : 96.0 Kbps
Channel(s) : 2 channels
Channel positions : Front: L R
Sampling rate : 48.0 KHz
Bit depth : 16 bits
Compression mode : Lossy
Stream size : 30.7 MiB (7%)
Alignment : Split accross interleaves
Interleave, duration : 40 ms (1.00 video frame)
Interleave, preload duration : 500 ms





   Похожие торренты   Торрент   Размер 
В этой теме нет новых непрочитанных сообщений. Марьина роща [01-16 из 16] (2012) WEBDLRip-AVC от ExKinoRay

106 | 57

8.76 ГБ

В этой теме нет новых непрочитанных сообщений. Марьина роща [01-16 из 16] (2012) WEB-DL 1080p от MediaClub

67 | 62

20.84 ГБ

В этой теме нет новых непрочитанных сообщений. Марьина роща [S01-02] (2012-2014) HDTVRip от GeneralFilm

173 | 68

12.34 ГБ

В этой теме нет новых непрочитанных сообщений. Марьина роща [02х01-04 из 16] (2014) HDTVRip-AVC

112 | 14

2.08 ГБ

В этой теме нет новых непрочитанных сообщений. Марьина роща [02х01 из 16] (2014) HDTVRip от Files-x

236 | 187

8.06 ГБ

В этой теме нет новых непрочитанных сообщений. Марьина роща [02х01 из 16] (2014) HDTVRip от Files-x

334 | 96

4.83 ГБ

В этой теме нет новых непрочитанных сообщений. Марьина роща [02х01 из 16] (2014) HDTVRip от Files-x

2986 | 1749

9.67 ГБ




Вы не можете начинать темы
Вы не можете отвечать на сообщения
Вы не можете редактировать свои сообщения
Вы не можете удалять свои сообщения
Вы не можете добавлять вложения

Перейти:  
 Вход
ppkBB3cker v.2 © 2008-2014 @ PPK
[ Time : 0.044s | 17 Queries | GZIP : Off ]

cron