img image001 image001 image001 image001 image001 image001 image001 image001 image001 image001 image001 image001 image001 image001 image001

Planets Sun Sun Sun
Статистика раздачи
Автор: Снежана | Размер: 7.87 ГБ | Добавлен: 25 июл 2013
Раздают: 9    Качают: 4
Скачать торрент
Скачать торрент
Описание торрента

СообщениеДобавлено: 25 июл 2013 

#77

Название: Убийство 3
Оригинальное название: Forbrydelsen III
Год выпуска: 2012
Страна: Дания
Жанр: Триллер, драма, криминал, детектив
Продолжительность: 10 х ~ 00:55:00
Перевод: Профессиональный (многоголосый закадровый) - Baibako
Субтитры: Нет
Режиссер: Наташа Артю, Кэтрин Уиндфельд

В ролях: Софи Гробель, Николай Ли Каас, Стиг Хоффмайер, Олаф Йоханнессен, Джонатан Спанг, Хенрик Бирк, Асбьерн Аггер

Описание: Сериал «Убийство 3» (Forbrydelsen III) – третья часть детективных расследований датской полицейской Сары Лунд. Сара пытается перейти на более спокойную работу, но в последний момент ей приходится расследовать якобы случайное убийство моряка и столкнуться с мировым финансовым кризисом.



Перевод: Lub_a
Озвучка: Татьяна Оболевич, Юлия Котурбаш, Алексей Кузнецов, Олекса Мельник
Монтаж: Vitall Digitall
Постер: Татьяна Оболевич



Качество: HDRip-AVC
Формат: MP4
Видео: MPEG-4 AVC, ~1500 Кбит/с, 720x400
Аудио rus: ACС, 2 ch, 192 Кбит/с
Аудио dan: ACС, 2 ch, 192 Кбит/с

General
Complete name : Forbrydelsen.s03e01.BDRip.x264.Rus.Dan.BaibaKo.tv.mp4
Format : MPEG-4
Format profile : Base Media
Codec ID : isom
File size : 797 MiB
Duration : 57mn 52s
Overall bit rate mode : Variable
Overall bit rate : 1 925 Kbps
Encoded date : UTC 2013-01-23 08:00:12
Tagged date : UTC 2013-01-23 08:00:12

Video
ID : 1
Format : AVC
Format/Info : Advanced Video Codec
Format profile : Baseline@L3.0
Format settings, CABAC : No
Format settings, ReFrames : 3 frames
Codec ID : avc1
Codec ID/Info : Advanced Video Coding
Duration : 57mn 52s
Bit rate mode : Variable
Bit rate : 1 536 Kbps
Maximum bit rate : 10 000 Kbps
Width : 720 pixels
Height : 400 pixels
Display aspect ratio : 16:9
Frame rate mode : Constant
Frame rate : 25.000 fps
Color space : YUV
Chroma subsampling : 4:2:0
Bit depth : 8 bits
Scan type : Progressive
Bits/(Pixel*Frame) : 0.213
Stream size : 636 MiB (80%)
Title : the killing 2007 s03e01 720p bluray x264-ingot
Writing library : x264 core 125 r2208 d9d2288
Encoding settings : cabac=0 / ref=3 / deblock=1:0:0 / analyse=0x1:0x111 / me=hex / subme=7 / psy=1 / psy_rd=1.00:0.00 / mixed_ref=1 / me_range=16 / chroma_me=1 / trellis=1 / 8x8dct=0 / cqm=0 / deadzone=21,11 / fast_pskip=1 / chroma_qp_offset=-2 / threads=6 / lookahead_threads=1 / sliced_threads=0 / nr=0 / decimate=1 / interlaced=0 / bluray_compat=0 / constrained_intra=0 / bframes=0 / weightp=0 / keyint=250 / keyint_min=25 / scenecut=40 / intra_refresh=0 / rc_lookahead=40 / rc=2pass / mbtree=1 / bitrate=1536 / ratetol=1.0 / qcomp=0.60 / qpmin=0 / qpmax=69 / qpstep=4 / cplxblur=20.0 / qblur=0.5 / vbv_maxrate=10000 / vbv_bufsize=10000 / nal_hrd=vbr / ip_ratio=1.40 / aq=1:1.00
Encoded date : UTC 2012-12-30 08:39:29
Tagged date : UTC 2013-01-23 08:02:16

Audio #1
ID : 2
Format : AAC
Format/Info : Advanced Audio Codec
Format profile : LC
Codec ID : 40
Duration : 57mn 52s
Bit rate mode : Variable
Bit rate : 192 Kbps
Maximum bit rate : 199 Kbps
Channel(s) : 2 channels
Channel positions : Front: L R
Sampling rate : 48.0 KHz
Compression mode : Lossy
Stream size : 79.5 MiB (10%)
Language : Russian
Encoded date : UTC 2013-01-23 08:01:42
Tagged date : UTC 2013-01-23 08:02:16

Audio #2
ID : 3
Format : AAC
Format/Info : Advanced Audio Codec
Format profile : LC
Codec ID : 40
Duration : 57mn 52s
Bit rate mode : Variable
Bit rate : 192 Kbps
Maximum bit rate : 198 Kbps
Channel(s) : 2 channels
Channel positions : Front: L R
Sampling rate : 48.0 KHz
Compression mode : Lossy
Stream size : 79.5 MiB (10%)
Title : Ñr
Language : Danish
Encoded date : UTC 2013-01-23 08:01:49
Tagged date : UTC 2013-01-23 08:02:16

Релиз от:



   Похожие торренты   Торрент   Размер 
В этой теме нет новых непрочитанных сообщений. Убийство 3 / Forbrydelsen III [S03] (2012) HDRip | Baibako

24 | 12

7.76 ГБ

В этой теме нет новых непрочитанных сообщений. Убийство 3 / Forbrydelsen III [S03] (2012) BDRip 720p | Baibako

1 | 3

28.02 ГБ

В этой теме нет новых непрочитанных сообщений. Убийство 3 / Forbrydelsen III [03х01-03 из 10] (2012) HDTVRip 720p | Baibako

0 | 1

3.42 ГБ

В этой теме нет новых непрочитанных сообщений. Убийство / Forbrydelsen [S02] (2009) DVDRip | BaibaKo

32 | 17

7.73 ГБ

В этой теме нет новых непрочитанных сообщений. Убийство / Forbrydelsen [01x01-12] (2007) HDRip | Первый канал

13 | 33

11.06 ГБ

В этой теме нет новых непрочитанных сообщений. Убийство / Forbrydelsen [S01] (2007) DVDRip | Первый канал

76 | 13

13.01 ГБ

В этой теме нет новых непрочитанных сообщений. Убийство / Forbrydelsen [01x01-11] (2007) DVDRip | Первый канал

0 | 15

7.13 ГБ




Вы не можете начинать темы
Вы не можете отвечать на сообщения
Вы не можете редактировать свои сообщения
Вы не можете удалять свои сообщения
Вы не можете добавлять вложения

Перейти:  
Для Мосгорсуда, Роскомнадзора и рекламодателей: mosgorsud-torrent[собачка]yandex.ru
 Вход
ppkBB3cker v.2 © 2008-2014 @ PPK
[ Time : 0.029s | 16 Queries | GZIP : On ]

Торрент трекер RUTOR.IN, Не можете зайти на rutor.org? Какой новый адрес рутор? Какое зеркало рутор? Не работает rutor.org и зеркала? Тогда наш торрент специально для вас. Rutor.in неофициальное зеркало rutor. В случае если у Вас заблокирован rutor или вдруг Вы не можете на него зайти, то Вы без труда сможете скачать бесплатно и без рекламы последние новинки кино, игр, сериалов и прочего у нас, на Rutor.in. Не нужно использовать прокси, чтобы зайти на рутор, достаточно воспользоваться нашим ресурсом. Все новые фильмы, игры, сериалы, книги и музыка за 2013 и 2014 годы через торрент бесплатно. Скачивайте фильмы в хорошем качестве, игры для пк, xbox, playstation без регистрации. У нас вы найдете новые Зарубежные сериалы и Русские сериалы 2013, 2014, 2015 годов. Оставайтесь с нами, качайте любимые фильмы, игры, сериалы, книги и музыку.