img image001 image001 image001 image001 image001 image001 image001 image001 image001 image001 image001 image001 image001 image001 image001

Planets Sun Sun Sun
Статистика раздачи
Автор: Снежана | Размер: 28.02 ГБ | Добавлен: 25 июл 2013
Раздают: 1    Качают: 3
Скачать торрент
Скачать торрент
Описание торрента

СообщениеДобавлено: 25 июл 2013 

#77

Название: Убийство 3
Оригинальное название: Forbrydelsen III
Год выпуска: 2012
Страна: Дания
Жанр: Триллер, драма, криминал, детектив
Продолжительность: 10 х ~ 00:55:00
Перевод: Профессиональный (многоголосый закадровый) - Baibako
Субтитры: Нет
Режиссер: Наташа Артю, Кэтрин Уиндфельд

В ролях: Софи Гробель, Николай Ли Каас, Стиг Хоффмайер, Олаф Йоханнессен, Джонатан Спанг, Хенрик Бирк, Асбьерн Аггер

Описание: Сериал «Убийство 3» (Forbrydelsen III) – третья часть детективных расследований датской полицейской Сары Лунд. Сара пытается перейти на более спокойную работу, но в последний момент ей приходится расследовать якобы случайное убийство моряка и столкнуться с мировым финансовым кризисом.



Перевод: Lub_a
Озвучка: Татьяна Оболевич, Юлия Котурбаш, Алексей Кузнецов, Олекса Мельник
Монтаж: Vitall Digitall
Постер: Татьяна Оболевич

Качество: BDRip 720p
Формат: МКV
Видео кодек: MPEG4
Аудио кодек: AC3
Видео: MPEG-4 AVC, ~5000 Кбит/с, 1280x720
Аудио rus: AC3, 6 ch, 384 Кбит/с
Аудио dan: AC3, 6 ch, 448 Кбит/с

Добавлена 10-ая серия. Сезон полностью.

Format : Matroska
Format version : Version 2
File size : 2.80 GiB
Duration : 57mn 52s
Overall bit rate : 6 930 Kbps
Movie name : BaibaKo.tv presents - Убийство 3x01
Encoded date : UTC 2013-01-21 09:18:07
Writing application : mkvmerge v5.8.0 ('No Sleep / Pillow') built on Sep 2 2012 15:37:04
Writing library : libebml v1.2.3 + libmatroska v1.3.0

Video
ID : 1
Format : AVC
Format/Info : Advanced Video Codec
Format profile : High@L4.1
Format settings, CABAC : Yes
Format settings, ReFrames : 5 frames
Codec ID : V_MPEG4/ISO/AVC
Duration : 57mn 52s
Bit rate : 5 033 Kbps
Width : 1 280 pixels
Height : 720 pixels
Display aspect ratio : 16:9
Frame rate : 25.000 fps
Color space : YUV
Chroma subsampling : 4:2:0
Bit depth : 8 bits
Scan type : Progressive
Bits/(Pixel*Frame) : 0.218
Stream size : 1.98 GiB (71%)
Writing library : x264 core 129 r2230 1cffe9f
Encoding settings : cabac=1 / ref=5 / deblock=1:0:0 / analyse=0x3:0x113 / me=umh / subme=8 / psy=1 / psy_rd=1.00:0.00 / mixed_ref=1 / me_range=16 / chroma_me=1 / trellis=1 / 8x8dct=1 / cqm=0 / deadzone=21,11 / fast_pskip=1 / chroma_qp_offset=-2 / threads=6 / lookahead_threads=1 / sliced_threads=0 / nr=0 / decimate=1 / interlaced=0 / bluray_compat=0 / constrained_intra=0 / bframes=3 / b_pyramid=2 / b_adapt=2 / b_bias=0 / direct=3 / weightb=1 / open_gop=0 / weightp=2 / keyint=250 / keyint_min=25 / scenecut=40 / intra_refresh=0 / rc_lookahead=50 / rc=2pass / mbtree=1 / bitrate=5033 / ratetol=1.0 / qcomp=0.60 / qpmin=0 / qpmax=69 / qpstep=4 / cplxblur=20.0 / qblur=0.5 / ip_ratio=1.40 / aq=1:1.00
Language : English
Default : Yes
Forced : No

Audio #1
ID : 2
Format : AC-3
Format/Info : Audio Coding 3
Mode extension : CM (complete main)
Codec ID : A_AC3
Duration : 57mn 52s
Bit rate mode : Constant
Bit rate : 384 Kbps
Channel(s) : 6 channels
Channel positions : Front: L C R, Side: L R, LFE
Sampling rate : 48.0 KHz
Bit depth : 16 bits
Compression mode : Lossy
Stream size : 159 MiB (6%)
Title : Rus BaibaKo.tv DD5.1
Language : Russian
Default : Yes
Forced : No

Audio #2
ID : 3
Format : DTS
Format/Info : Digital Theater Systems
Codec ID : A_DTS
Duration : 57mn 52s
Bit rate mode : Constant
Bit rate : 1 510 Kbps
Channel(s) : 6 channels
Channel positions : Front: L C R, Side: L R, LFE
Sampling rate : 48.0 KHz
Bit depth : 24 bits
Compression mode : Lossy
Stream size : 625 MiB (22%)
Title : Dan DTS5.1
Language : Danish
Default : No
Forced : No

Релиз от:



   Похожие торренты   Торрент   Размер 
В этой теме нет новых непрочитанных сообщений. Убийство 3 / Forbrydelsen III [03х01-03 из 10] (2012) HDTVRip 720p | Baibako

0 | 1

3.42 ГБ

В этой теме нет новых непрочитанных сообщений. Убийство 3 / Forbrydelsen III [S03] (2012) HDRip-AVC | Baibako

9 | 4

7.87 ГБ

В этой теме нет новых непрочитанных сообщений. Убийство 3 / Forbrydelsen III [S03] (2012) HDRip | Baibako

24 | 12

7.76 ГБ

В этой теме нет новых непрочитанных сообщений. Убийство / Forbrydelsen [S02] (2009) DVDRip | BaibaKo

32 | 17

7.73 ГБ

В этой теме нет новых непрочитанных сообщений. Убийство / Forbrydelsen [S01] (2007) DVDRip | Первый канал

76 | 13

13.01 ГБ

В этой теме нет новых непрочитанных сообщений. Убийство / Forbrydelsen [01x01-12] (2007) HDRip | Первый канал

13 | 33

11.06 ГБ

В этой теме нет новых непрочитанных сообщений. Убийство / Forbrydelsen [01x01-11] (2007) DVDRip | Первый канал

0 | 15

7.13 ГБ




Вы не можете начинать темы
Вы не можете отвечать на сообщения
Вы не можете редактировать свои сообщения
Вы не можете удалять свои сообщения
Вы не можете добавлять вложения

Перейти:  
Для Мосгорсуда, Роскомнадзора и рекламодателей: mosgorsud-torrent[собачка]yandex.ru
 Вход
ppkBB3cker v.2 © 2008-2014 @ PPK
[ Time : 1.650s | 15 Queries | GZIP : On ]

Торрент трекер RUTOR.IN, Не можете зайти на rutor.org? Какой новый адрес рутор? Какое зеркало рутор? Не работает rutor.org и зеркала? Тогда наш торрент специально для вас. Rutor.in неофициальное зеркало rutor. В случае если у Вас заблокирован rutor или вдруг Вы не можете на него зайти, то Вы без труда сможете скачать бесплатно и без рекламы последние новинки кино, игр, сериалов и прочего у нас, на Rutor.in. Не нужно использовать прокси, чтобы зайти на рутор, достаточно воспользоваться нашим ресурсом. Все новые фильмы, игры, сериалы, книги и музыка за 2013 и 2014 годы через торрент бесплатно. Скачивайте фильмы в хорошем качестве, игры для пк, xbox, playstation без регистрации. У нас вы найдете новые Зарубежные сериалы и Русские сериалы 2013, 2014, 2015 годов. Оставайтесь с нами, качайте любимые фильмы, игры, сериалы, книги и музыку.