img image001 image001 image001 image001 image001 image001 image001 image001 image001 image001 image001 image001 image001 image001 image001 image001

Planets Sun Sun Sun
Статистика раздачи
Автор: Снежана | Размер: 7.76 ГБ | Добавлен: 25 июл 2013
Раздают: 24    Качают: 12
Скачать торрент
Скачать торрент
Описание торрента

СообщениеДобавлено: 25 июл 2013 

#77

Название: Убийство 3
Оригинальное название: Forbrydelsen III
Год выпуска: 2012
Страна: Дания
Жанр: Триллер, драма, криминал, детектив
Продолжительность: 10 х ~ 00:55:00
Перевод: Профессиональный (многоголосый закадровый) - Baibako
Субтитры: Нет
Режиссер: Наташа Артю, Кэтрин Уиндфельд

В ролях: Софи Гробель, Николай Ли Каас, Стиг Хоффмайер, Олаф Йоханнессен, Джонатан Спанг, Хенрик Бирк, Асбьерн Аггер

Описание: Сериал «Убийство 3» (Forbrydelsen III) – третья часть детективных расследований датской полицейской Сары Лунд. Сара пытается перейти на более спокойную работу, но в последний момент ей приходится расследовать якобы случайное убийство моряка и столкнуться с мировым финансовым кризисом.



Перевод: Lub_a
Озвучка: Татьяна Оболевич, Юлия Котурбаш, Алексей Кузнецов, Олекса Мельник
Монтаж: Vitall Digitall
Постер: Татьяна Оболевич
Автор рипа третьей серии: Unknown

Качество: HDRip
Формат: AVI
Видео кодек: XviD
Аудио кодек: MP3
Видео: XviD, ~1500 Кбит/с, 720x400
Аудио rus: MP3, 2 ch, 192 Кбит/с
Аудио dan: MP3, 2 ch, 192 Кбит/с

Добавлена 10-ая серия.

Формат : AVI
Формат/Информация : Audio Video Interleave
Размер файла : 782 Мбайт
Продолжительность : 57 м.
Общий поток : 1891 Кбит/сек

Видео
Идентификатор : 0
Формат : MPEG-4 Visual
Профиль формата : Advanced Simple@L5
Параметр BVOP формата : 2
Параметр QPel формата : Нет
Параметр GMC формата : Без точки перехода
Параметр матрицы формата : Default (H.263)
Идентификатор кодека : XVID
Идентификатор кодека/Подсказка : XviD
Продолжительность : 57 м.
Битрейт : 1500 Кбит/сек
Ширина : 720 пикс.
Высота : 400 пикс.
Соотношение сторон : 16:9
Частота кадров : 25,000 кадр/сек
Цветовое пространство : YUV
Подвыборка цветности : 4:2:0
Битовая глубина : 8 бит
Тип развёртки : Прогрессивная
Метод сжатия : С потерями
Бит/(Пиксели*Кадры) : 0.208
Размер потока : 620 Мбайт (79%)
Библиотека кодирования : XviD 1.2.1 (UTC 2008-12-04)

Аудио #1
Идентификатор : 1
Формат : MPEG Audio
Версия формата : Version 1
Профиль формата : Layer 3
Режим : Joint stereo
Расширение режима : MS Stereo
Идентификатор кодека : 55
Идентификатор кодека/Подсказка : MP3
Продолжительность : 57 м.
Вид битрейта : Постоянный
Битрейт : 192 Кбит/сек
Каналы : 2 канала
Частота : 48,0 КГц
Метод сжатия : С потерями
Размер потока : 79,4 Мбайт (10%)
Выравнивание : Соединение по промежуткам
Продолжительность промежутка : 160 мс. (4,00 видеокадра)
Время предзагрузки промежутка : 216 ms
Заголовок : Forbrydelsen.s03e01.HDTVRip.x264.Rus.Dan.BaibaKo.tv.mp4_track_1_russian_audio
Библиотека кодирования : LAME3.99r
Настройки программы : -m j -V 4 -q 2 -lowpass 18.6 -b 192

Аудио #2
Идентификатор : 2
Формат : MPEG Audio
Версия формата : Version 1
Профиль формата : Layer 3
Режим : Joint stereo
Расширение режима : MS Stereo
Идентификатор кодека : 55
Идентификатор кодека/Подсказка : MP3
Продолжительность : 57 м.
Вид битрейта : Постоянный
Битрейт : 192 Кбит/сек
Каналы : 2 канала
Частота : 48,0 КГц
Метод сжатия : С потерями
Размер потока : 79,4 Мбайт (10%)
Выравнивание : Соединение по промежуткам
Продолжительность промежутка : 160 мс. (4,00 видеокадра)
Время предзагрузки промежутка : 216 ms
Заголовок : Forbrydelsen.s03e01.HDTVRip.x264.Rus.Dan.BaibaKo.tv.mp4_track_2_danish_audio
Библиотека кодирования : LAME3.99r
Настройки программы : -m j -V 4 -q 2 -lowpass 18.6 -b 192

Релиз от:



   Похожие торренты   Торрент   Размер 
В этой теме нет новых непрочитанных сообщений. Убийство / Убийство из-за угла / Assassination (2015) HDRip-AVC от BTT-TEAM и ClubFate | L2

90 | 3

2.2 ГБ

В этой теме нет новых непрочитанных сообщений. Убийство / Убийство из-за угла / Am-sal / Assassination (2015) HDRip | L2

248 | 25

2.18 ГБ

В этой теме нет новых непрочитанных сообщений. Убийство у моря / Tyskungen (2012) HDRip | P

226 | 27

1.37 ГБ

В этой теме нет новых непрочитанных сообщений. Убийство у моря / Tyskungen (2012) HDRip-AVC | P

44 | 15

1.36 ГБ

В этой теме нет новых непрочитанных сообщений. Убийство / Murder [S01] (2016) WEB-DL 1080p | BaibaKo

16 | 3

6.33 ГБ

В этой теме нет новых непрочитанных сообщений. Убийство на пляже / Broadchurch [02x01-05 из 08] (2015) WEB-DLRip | BaibaKo

121 | 56

2.87 ГБ

В этой теме нет новых непрочитанных сообщений. Убийство на пляже / Broadchurch [02x01-05 из 08] (2015) WEB-DL 1080p | BaibaKo

22 | 24

9.15 ГБ




Вы не можете начинать темы
Вы не можете отвечать на сообщения
Вы не можете редактировать свои сообщения
Вы не можете удалять свои сообщения
Вы не можете добавлять вложения

Перейти:  
 Вход
ppkBB3cker v.2 © 2008-2014 @ PPK
[ Time : 0.043s | 15 Queries | GZIP : Off ]

cron