img image001 image001 image001 image001 image001 image001 image001 image001 image001 image001 image001 image001 image001 image001 image001

Planets Sun Sun Sun
Статистика раздачи
Автор: Снежана | Размер: 41.11 ГБ | Добавлен: 25 июл 2013
Раздают: 16    Качают: 22
Скачать торрент
Скачать торрент
Описание торрента

СообщениеДобавлено: 25 июл 2013 

#77

Название: Карточный домик
Оригинальное название: House of Cards
Год выпуска: 2013
Жанр: Драма
Режиссер: Джеймс Фоули, Дэвид Финчер, Карл Франклин
В ролях: Кевин Спейси, Робин Райт, Кейт Мара, Кори Столл, Майкл Келли, Сакина Джэффри, Жаклин Джонс, Рюэл Пендлтон, Гилберт Сото, Сандрин Холт

Описание: Безжалостный конгрессмен, Фрэнсис Андервуд, и его амбициозная жена Клэр, не остановятся ни перед чем, чтобы завоевать все. Эта жестокая политическая драма пропитанная жадностью, сексом, любовью и коррупцией.





Выпущено: США / Media Rights Capital, Panic Pictures (II), Trigger Street Productions
Продолжительность: 13 x ~ 00:55:00
Перевод: Профессиональный (многоголосый, закадровый) - Первый канал
Субтитры: Нет

Качество: HDTV 1080i
Формат: TS
Видео: AVC, ~8500 Кбит/с, 1920x1080
Аудио: AC3, 2 ch, 384 Кбит/с

General
ID : 1 (0x1)
Complete name : E:torrentКарточный домик 1080i HDTV (season 1)House.of.Cards.S01E02.1080i.HDTV.ts
Format : MPEG-TS
File size : 3.08 GiB
Duration : 46mn 46s
Overall bit rate mode : Variable
Overall bit rate : 9 432 Kbps

Video
ID : 101 (0x65)
Menu ID : 1 (0x1)
Format : AVC
Format/Info : Advanced Video Codec
Format profile : High@L4.0
Format settings, CABAC : Yes
Format settings, ReFrames : 3 frames
Codec ID : 27
Duration : 46mn 47s
Bit rate : 8 578 Kbps
Width : 1 920 pixels
Height : 1 080 pixels
Display aspect ratio : 16:9
Frame rate : 25.000 fps
Standard : Component
Color space : YUV
Chroma subsampling : 4:2:0
Bit depth : 8 bits
Scan type : Interlaced
Scan order : Top Field First
Bits/(Pixel*Frame) : 0.165
Stream size : 2.80 GiB (91%)
Color primaries : BT.709
Transfer characteristics : BT.709
Matrix coefficients : BT.709

Audio
ID : 111 (0x6F)
Menu ID : 1 (0x1)
Format : AC-3
Format/Info : Audio Coding 3
Mode extension : CM (complete main)
Format settings, Endianness : Big
Codec ID : 6
Duration : 46mn 46s
Bit rate mode : Constant
Bit rate : 384 Kbps
Channel(s) : 2 channels
Channel positions : Front: L R
Sampling rate : 48.0 KHz
Bit depth : 16 bits
Compression mode : Lossy
Stream size : 128 MiB (4%)
Language : Russian


Релиз от:



   Похожие торренты   Торрент   Размер 
В этой теме нет новых непрочитанных сообщений. Карточный домик / House of Cards [S01] (2013) HDTV 1080i | Первый канал

120 | 56

41.11 ГБ

В этой теме нет новых непрочитанных сообщений. Карточный домик / House of Cards [S01] (2013) HDTVRip-AVC | Первый канал

163 | 14

7.54 ГБ

В этой теме нет новых непрочитанных сообщений. Карточный домик / House of Cards [S01-02] (2013-2014) HDRip | Первый канал

5654 | 3311

8.64 ГБ

В этой теме нет новых непрочитанных сообщений. Карточный Домик / House of Cards [S01] (2013) HDTVRip 720p | Первый Канал

1457 | 484

7.21 ГБ

В этой теме нет новых непрочитанных сообщений. Карточный Домик / House of Cards [S01-03] (2013-2015) HDRip от qqss44 | P | Первый канал

891 | 714

26.26 ГБ

В этой теме нет новых непрочитанных сообщений. Карточный домик / House of Cards [01х01-13 из 13] (2013) HDTVRip от Scarabey | Первый канал

50 | 14

9.03 ГБ

В этой теме нет новых непрочитанных сообщений. Карточный домик / House of Cards [01х01-13 из 13] (2013) HDRip от Scarabey | Первый канал

407 | 151

9.67 ГБ




Вы не можете начинать темы
Вы не можете отвечать на сообщения
Вы не можете редактировать свои сообщения
Вы не можете удалять свои сообщения
Вы не можете добавлять вложения

Перейти:  
Для Мосгорсуда, Роскомнадзора и рекламодателей: mosgorsud-torrent[собачка]yandex.ru
 Вход
ppkBB3cker v.2 © 2008-2014 @ PPK
[ Time : 0.035s | 15 Queries | GZIP : Off ]

Торрент трекер RUTOR.IN, Не можете зайти на rutor.org? Какой новый адрес рутор? Какое зеркало рутор? Не работает rutor.org и зеркала? Тогда наш торрент специально для вас. Rutor.in неофициальное зеркало rutor. В случае если у Вас заблокирован rutor или вдруг Вы не можете на него зайти, то Вы без труда сможете скачать бесплатно и без рекламы последние новинки кино, игр, сериалов и прочего у нас, на Rutor.in. Не нужно использовать прокси, чтобы зайти на рутор, достаточно воспользоваться нашим ресурсом. Все новые фильмы, игры, сериалы, книги и музыка за 2013 и 2014 годы через торрент бесплатно. Скачивайте фильмы в хорошем качестве, игры для пк, xbox, playstation без регистрации. У нас вы найдете новые Зарубежные сериалы и Русские сериалы 2013, 2014, 2015 годов. Оставайтесь с нами, качайте любимые фильмы, игры, сериалы, книги и музыку.