img image001 image001 image001 image001 image001 image001 image001 image001 image001 image001 image001 image001 image001 image001 image001

Planets Sun Sun Sun
Статистика раздачи
Автор: Снежана | Размер: 10.33 ГБ | Добавлен: 25 июл 2013
Раздают: 4    Качают: 3
Скачать торрент
Скачать торрент
Описание торрента

СообщениеДобавлено: 25 июл 2013 

#77

Название: Улица потрошителя
Оригинальное название: Ripper Street
Год выпуска: 2012
Страна: Великобритания
Жанр: Детектив
Продолжительность: 08 х ~ 00:59:00
Перевод: Профессиональный (многоголосый закадровый) - NewStudio
Субтитры: нет
Режиссер: Энди Уилсон, Том Шенклэнд, Колм МакКарти

В ролях: Мэтью Макфейден, Джером Флинн, Адам Ротенберг, Дэвид Уилмот, МайАнна Бёринг, Шарлин МакКенна

Описание: События данного сериала разворачиваются в Лондоне 1889 года, сразу после громких убийств, совершенных Джеком Потрошителем. Команда детективов расследует преступления, попутно стараясь успокоить панику среди жителей Ист-Энда.



Перевод: Олег Папулов
Озвучка: Владимир Курдов, Александр Дасевич, Наталья Ланц
Работа со звуком: Koss
Рип видео: Koss

Качество: HDTVRip 720p, WEB-DL 720p
Формат: MKV
Видео кодек: MPEG4
Аудио кодек: AC3
Видео: 2620 kb/s, 1280x720
Аудио rus: AC3, 2 ch, 192 kb/s
Аудио eng: AC3, 2 ch, 192 kb/s

Добавлена 08-ая серия. Сезон полностью.
Съемки 2 сезона - весной 2013. Премьера состоится в начале 2014.


01. Мне нужен свет / I Need Light
02. Под моей защитой / In My Protection
03. Явился король / The King Came Calling
04. На благо города / The Good of This City
05. Вес человеческого сердца / The Weight of One Man's Heart
06. Турниры Теней / Tournament of Shadows
07. Один из моих людей / A Man of My Company
08. Какая польза от нашей работы?
Формат : Matroska
Размер файла : 1,27 Гбайт
Продолжительность : 59 м.
Общий поток : 3065 Кбит/сек
Дата кодирования : UTC 2010-02-22 21:41:31
Программа кодирования : mkvmerge v5.9.0 ('On The Loose') built on Dec 9 2012 15:37:01
Библиотека кодирования : libebml v1.3.0 + libmatroska v1.4.0

Видео
Идентификатор : 1
Формат : AVC
Формат/Информация : Advanced Video Codec
Профиль формата : High@L4.1
Параметр CABAC формата : Да
Параметр ReFrames формата : 5 кадров
Идентификатор кодека : V_MPEG4/ISO/AVC
Продолжительность : 59 м.
Битрейт : 2620 Кбит/сек
Ширина : 1280 пикс.
Высота : 720 пикс.
Соотношение сторон : 16:9
Частота кадров : 25,000 кадр/сек
Цветовое пространство : YUV
Подвыборка цветности : 4:2:0
Битовая глубина : 8 бит
Тип развёртки : Прогрессивная
Бит/(Пиксели*Кадры) : 0.114
Размер потока : 1,08 Гбайт (85%)
Библиотека кодирования : x264 core 129 r2230 1cffe9f
Настройки программы : cabac=1 / ref=5 / deblock=1:0:0 / analyse=0x3:0x113 / me=umh / subme=8 / psy=1 / psy_rd=1.00:0.00 / mixed_ref=1 / me_range=16 / chroma_me=1 / trellis=1 / 8x8dct=1 / cqm=0 / deadzone=21,11 / fast_pskip=1 / chroma_qp_offset=-2 / threads=18 / lookahead_threads=3 / sliced_threads=0 / nr=0 / decimate=1 / interlaced=0 / bluray_compat=0 / constrained_intra=0 / bframes=3 / b_pyramid=2 / b_adapt=2 / b_bias=0 / direct=3 / weightb=1 / open_gop=0 / weightp=2 / keyint=250 / keyint_min=25 / scenecut=40 / intra_refresh=0 / rc_lookahead=50 / rc=crf / mbtree=1 / crf=18.0 / qcomp=0.60 / qpmin=0 / qpmax=69 / qpstep=4 / ip_ratio=1.40 / aq=1:1.00

Аудио #1
Идентификатор : 2
Формат : AC-3
Формат/Информация : Audio Coding 3
Расширение режима : CM (complete main)
Идентификатор кодека : A_AC3
Продолжительность : 59 м.
Вид битрейта : Постоянный
Битрейт : 192 Кбит/сек
Каналы : 2 канала
Расположение каналов : Front: L R
Частота : 48,0 КГц
Битовая глубина : 16 бит
Метод сжатия : С потерями
Размер потока : 81,4 Мбайт (6%)
Язык : Russian

Аудио #2
Идентификатор : 3
Формат : AC-3
Формат/Информация : Audio Coding 3
Расширение режима : CM (complete main)
Идентификатор кодека : A_AC3
Продолжительность : 59 м.
Вид битрейта : Постоянный
Битрейт : 192 Кбит/сек
Каналы : 2 канала
Расположение каналов : Front: L R
Частота : 48,0 КГц
Битовая глубина : 16 бит
Метод сжатия : С потерями
Размер потока : 81,4 Мбайт (6%)
Язык : English


Релиз от:



   Похожие торренты   Торрент   Размер 
В этой теме нет новых непрочитанных сообщений. Улица потрошителя / Ripper Street [S01] (2012) HDTVRip | NewStudio

8 | 6

5.47 ГБ

В этой теме нет новых непрочитанных сообщений. Улица потрошителя / Ripper Street [S01-02] (2012-2014) WEB-DLRip, HDTVRip | NewStudio

94 | 40

10.94 ГБ

В этой теме нет новых непрочитанных сообщений. Улица потрошителя / Ripper Street [S01-04] (2012-2016) WEB-DLRip, HDTVRip, WEBRip | NewStudio

102 | 159

22.36 ГБ

В этой теме нет новых непрочитанных сообщений. Улица потрошителя / Ripper Street [S01-03] (2012-2015) WEB-DLRip, HDTVRip, WEBRip | NewStudio

213 | 141

17.29 ГБ

В этой теме нет новых непрочитанных сообщений. Улица потрошителя / Ripper Street [S02] (2013) HDTVRip | NewStudio

35 | 12

5.47 ГБ

В этой теме нет новых непрочитанных сообщений. Улица потрошителя / Ripper Street [S01] (2012) WEB-DL 1080p | NewStudio

0 | 1

18.01 ГБ

В этой теме нет новых непрочитанных сообщений. Улица потрошителя / Ripper Street [S01] (2012) WEB-DL 1080p | NewStudio

7 | 2

18.01 ГБ




Вы не можете начинать темы
Вы не можете отвечать на сообщения
Вы не можете редактировать свои сообщения
Вы не можете удалять свои сообщения
Вы не можете добавлять вложения

Перейти:  
Для Мосгорсуда, Роскомнадзора и рекламодателей: mosgorsud-torrent[собачка]yandex.ru
 Вход
ppkBB3cker v.2 © 2008-2014 @ PPK
[ Time : 2.199s | 15 Queries | GZIP : Off ]

Торрент трекер RUTOR.IN, Не можете зайти на rutor.org? Какой новый адрес рутор? Какое зеркало рутор? Не работает rutor.org и зеркала? Тогда наш торрент специально для вас. Rutor.in неофициальное зеркало rutor. В случае если у Вас заблокирован rutor или вдруг Вы не можете на него зайти, то Вы без труда сможете скачать бесплатно и без рекламы последние новинки кино, игр, сериалов и прочего у нас, на Rutor.in. Не нужно использовать прокси, чтобы зайти на рутор, достаточно воспользоваться нашим ресурсом. Все новые фильмы, игры, сериалы, книги и музыка за 2013 и 2014 годы через торрент бесплатно. Скачивайте фильмы в хорошем качестве, игры для пк, xbox, playstation без регистрации. У нас вы найдете новые Зарубежные сериалы и Русские сериалы 2013, 2014, 2015 годов. Оставайтесь с нами, качайте любимые фильмы, игры, сериалы, книги и музыку.