img image001 image001 image001 image001 image001 image001 image001 image001 image001 image001 image001 image001 image001 image001 image001

Planets Sun Sun Sun
Статистика раздачи
Автор: Снежана | Размер: 7.54 ГБ | Добавлен: 25 июл 2013
Раздают: 163    Качают: 14
Скачать торрент
Скачать торрент
Описание торрента

СообщениеДобавлено: 25 июл 2013 

#77

Название: Карточный домик
Оригинальное название: House of Cards
Год выпуска: 2013
Жанр: Драма
Режиссер: Джеймс Фоули, Дэвид Финчер, Карл Франклин
В ролях: Кевин Спейси, Робин Райт, Кейт Мара, Кори Столл, Майкл Келли, Сакина Джэффри, Жаклин Джонс, Рюэл Пендлтон, Гилберт Сото, Сандрин Холт

Описание: Безжалостный конгрессмен, Фрэнсис Андервуд, и его амбициозная жена Клэр, не остановятся ни перед чем, чтобы завоевать все. Эта жестокая политическая драма пропитанная жадностью, сексом, любовью и коррупцией.



Выпущено: США / Media Rights Capital, Panic Pictures (II), Trigger Street Productions
Продолжительность: 13 x ~ 00:55:00
Перевод: Профессиональный (многоголосый, закадровый) - Первый канал
Субтитры: Нет



Качество: HDTVRip-AVC [Рип с HDTV 1080i]
Формат: MKV
Видео кодек: H.264
Аудио кодек: AC3
Видео: x264, 1024 х 512 (16:9), 25,000 кадр/сек, ~ 1504 Кбит/сек, ~ 0.115 bit/pixel
Аудио: AC3, 48.0 KHz, 2 канала(ов), 224 kbs

Format : Matroska
Format version : Version 2
File size : 595 MiB
Duration : 48mn 7s
Overall bit rate : 1 730 Kbps
Encoded date : UTC 2013-02-17 21:20:56
Writing application : mkvmerge v5.8.0 ('No Sleep / Pillow') built on Sep 2 2012 15:37:04
Writing library : libebml v1.2.3 + libmatroska v1.3.0

Video
ID : 1
Format : AVC
Format/Info : Advanced Video Codec
Format profile : High@L3.2
Format settings, CABAC : Yes
Format settings, ReFrames : 10 frames
Codec ID : V_MPEG4/ISO/AVC
Duration : 48mn 7s
Bit rate : 1 504 Kbps
Width : 1 024 pixels
Height : 512 pixels
Display aspect ratio : 2.000
Frame rate mode : Constant
Frame rate : 25.000 fps
Color space : YUV
Chroma subsampling : 4:2:0
Bit depth : 8 bits
Scan type : Progressive
Bits/(Pixel*Frame) : 0.115
Stream size : 506 MiB (85%)
Writing library : x264 core 125 r2208 d9d2288
Encoding settings : cabac=1 / ref=10 / deblock=1:-3:-3 / analyse=0x3:0x113 / me=umh / subme=9 / psy=1 / psy_rd=1.00:0.20 / mixed_ref=1 / me_range=32 / chroma_me=1 / trellis=2 / 8x8dct=1 / cqm=0 / deadzone=21,11 / fast_pskip=1 / chroma_qp_offset=-3 / threads=6 / lookahead_threads=1 / sliced_threads=0 / nr=0 / decimate=0 / interlaced=0 / bluray_compat=0 / constrained_intra=0 / bframes=8 / b_pyramid=2 / b_adapt=2 / b_bias=0 / direct=3 / weightb=1 / open_gop=0 / weightp=2 / keyint=250 / keyint_min=25 / scenecut=40 / intra_refresh=0 / rc=2pass / mbtree=0 / bitrate=1504 / ratetol=1.0 / qcomp=0.70 / qpmin=0 / qpmax=69 / qpstep=4 / cplxblur=20.0 / qblur=0.5 / ip_ratio=1.40 / pb_ratio=1.30 / aq=1:1.00
Default : Yes
Forced : No
Color primaries : BT.709
Transfer characteristics : BT.709
Matrix coefficients : BT.709

Audio
ID : 2
Format : AC-3
Format/Info : Audio Coding 3
Mode extension : CM (complete main)
Format settings, Endianness : Big
Codec ID : A_AC3
Duration : 48mn 7s
Bit rate mode : Constant
Bit rate : 224 Kbps
Channel(s) : 2 channels
Channel positions : Front: L R
Sampling rate : 48.0 KHz
Bit depth : 16 bits
Compression mode : Lossy
Stream size : 77.1 MiB (13%)
Default : Yes
Forced : No



Релиз от: metla111



   Похожие торренты   Торрент   Размер 
В этой теме нет новых непрочитанных сообщений. Карточный Домик / House of Cards [S01] (2013) HDTVRip 720p | Первый Канал

1457 | 484

7.21 ГБ

В этой теме нет новых непрочитанных сообщений. Карточный домик / House of Cards [01х01-13 из 13] (2013) HDTVRip от Scarabey | Первый канал

50 | 14

9.03 ГБ

В этой теме нет новых непрочитанных сообщений. Карточный домик / House of Cards [S04] (2016) HDTVRip 1080p | P | Первый канал

3302 | 2890

25.88 ГБ

В этой теме нет новых непрочитанных сообщений. Карточный домик / House of Cards [S01] (2013) HDTV 1080i | Первый канал

16 | 22

41.11 ГБ

В этой теме нет новых непрочитанных сообщений. Карточный домик / House of Cards [S01-02] (2013-2014) HDRip | Первый канал

5654 | 3311

8.64 ГБ

В этой теме нет новых непрочитанных сообщений. Карточный домик / House of Cards [S01] (2013) HDTV 1080i | Первый канал

106 | 53

41.11 ГБ

В этой теме нет новых непрочитанных сообщений. Карточный Домик / House of Cards [S01-03] (2013-2015) HDRip от qqss44 | P | Первый канал

916 | 714

26.26 ГБ




Вы не можете начинать темы
Вы не можете отвечать на сообщения
Вы не можете редактировать свои сообщения
Вы не можете удалять свои сообщения
Вы не можете добавлять вложения

Перейти:  
Для Мосгорсуда, Роскомнадзора и рекламодателей: mosgorsud-torrent[собачка]yandex.ru
 Вход
ppkBB3cker v.2 © 2008-2014 @ PPK
[ Time : 0.021s | 14 Queries | GZIP : Off ]
CGP output time : 0.014s | 5 Queries | GZIP : Off

Торрент трекер RUTOR.IN, Не можете зайти на rutor.org? Какой новый адрес рутор? Какое зеркало рутор? Не работает rutor.org и зеркала? Тогда наш торрент специально для вас. Rutor.in неофициальное зеркало rutor. В случае если у Вас заблокирован rutor или вдруг Вы не можете на него зайти, то Вы без труда сможете скачать бесплатно и без рекламы последние новинки кино, игр, сериалов и прочего у нас, на Rutor.in. Не нужно использовать прокси, чтобы зайти на рутор, достаточно воспользоваться нашим ресурсом. Все новые фильмы, игры, сериалы, книги и музыка за 2013 и 2014 годы через торрент бесплатно. Скачивайте фильмы в хорошем качестве, игры для пк, xbox, playstation без регистрации. У нас вы найдете новые Зарубежные сериалы и Русские сериалы 2013, 2014, 2015 годов. Оставайтесь с нами, качайте любимые фильмы, игры, сериалы, книги и музыку.