img image001 image001 image001 image001 image001 image001 image001 image001 image001 image001 image001 image001 image001 image001 image001

Planets Sun Sun Sun
Статистика раздачи
Автор: Снежана | Размер: 5.47 ГБ | Добавлен: 25 июл 2013
Раздают: 8    Качают: 6
Скачать торрент
Скачать торрент
Описание торрента

СообщениеДобавлено: 25 июл 2013 

#77

Название: Улица потрошителя
Оригинальное название: Ripper Street
Год выпуска: 2012
Страна: Великобритания
Жанр: Детектив
Продолжительность: 08 х ~ 00:59:00
Перевод: Профессиональный (многоголосый закадровый) - NewStudio
Субтитры: нет
Режиссер: Энди Уилсон, Том Шенклэнд, Колм МакКарти

В ролях: Мэтью Макфейден, Джером Флинн, Адам Ротенберг, Дэвид Уилмот, МайАнна Бёринг, Шарлин МакКенна

Описание: События данного сериала разворачиваются в Лондоне 1889 года, сразу после громких убийств, совершенных Джеком Потрошителем. Команда детективов расследует преступления, попутно стараясь успокоить панику среди жителей Ист-Энда.



Перевод: Олег Папулов
Озвучка: Владимир Курдов, Александр Дасевич, Наталья Ланц
Работа со звуком: Koss
Рип видео: Koss

Качество: HDTVRip
Формат: AVI
Видео кодек: XviD
Аудио кодек: МР3
Видео: 1375 kb/s, 720x400
Аудио rus: МР3, 2 ch, 128 Кбит/
Аудио eng: МР3, 2 ch, 128 Кбит/

Добавлена 08-ая серия. Сезон полностью.
Съемки 2 сезона - весной 2013. Премьера состоится в начале 2014.


01. Мне нужен свет / I Need Light
02. Под моей защитой / In My Protection
03. Явился король / The King Came Calling
04. На благо города /The Good of This City
05. Вес человеческого сердца / The Weight of One Man's Heart
06. Турниры Теней / Tournament of Shadows
07. Один из моих людей / A Man of My Company
08. Какая польза от нашей работы?
Формат : AVI
Формат/Информация : Audio Video Interleave
Размер файла : 700 Мбайт
Продолжительность : 59 м.
Общий поток : 1647 Кбит/сек
Программа кодирования : VirtualDubMod 1.5.10.2 (build 2540/release)
Библиотека кодирования : VirtualDubMod build 2540/release

Видео
Идентификатор : 0
Формат : MPEG-4 Visual
Профиль формата : Advanced Simple@L5
Параметр BVOP формата : 2
Параметр QPel формата : Нет
Параметр GMC формата : Без точки перехода
Параметр матрицы формата : Default (MPEG)
Идентификатор кодека : XVID
Идентификатор кодека/Подсказка : XviD
Продолжительность : 59 м.
Битрейт : 1377 Кбит/сек
Ширина : 720 пикс.
Высота : 400 пикс.
Соотношение сторон : 16:9
Частота кадров : 23,976 кадр/сек
Цветовое пространство : YUV
Подвыборка цветности : 4:2:0
Битовая глубина : 8 бит
Тип развёртки : Прогрессивная
Метод сжатия : С потерями
Бит/(Пиксели*Кадры) : 0.199
Размер потока : 585 Мбайт (84%)
Библиотека кодирования : XviD 65

Аудио #1
Идентификатор : 1
Формат : MPEG Audio
Версия формата : Version 1
Профиль формата : Layer 3
Режим : Joint stereo
Расширение режима : MS Stereo
Идентификатор кодека : 55
Идентификатор кодека/Подсказка : MP3
Продолжительность : 59 м.
Вид битрейта : Постоянный
Битрейт : 128 Кбит/сек
Каналы : 2 канала
Частота : 48,0 КГц
Метод сжатия : С потерями
Размер потока : 54,4 Мбайт (8%)
Выравнивание : Соединение по промежуткам
Продолжительность промежутка : 42 мс. (1,00 видеокадр)
Время предзагрузки промежутка : 504 ms

Аудио #2
Идентификатор : 2
Формат : MPEG Audio
Версия формата : Version 1
Профиль формата : Layer 3
Режим : Joint stereo
Расширение режима : MS Stereo
Идентификатор кодека : 55
Идентификатор кодека/Подсказка : MP3
Продолжительность : 59 м.
Вид битрейта : Постоянный
Битрейт : 128 Кбит/сек
Каналы : 2 канала
Частота : 48,0 КГц
Метод сжатия : С потерями
Размер потока : 54,4 Мбайт (8%)
Выравнивание : Соединение по промежуткам
Продолжительность промежутка : 42 мс. (1,00 видеокадр)
Время предзагрузки промежутка : 504 ms
Библиотека кодирования : LAME3.99r
Настройки программы : -m j -V 4 -q 2 -lowpass 17 -b 128



Релиз от:



   Похожие торренты   Торрент   Размер 
В этой теме нет новых непрочитанных сообщений. Улица потрошителя / Ripper Street [S01] (2012) HDTVRip, WEB-DL 720p | NewStudio

4 | 3

10.33 ГБ

В этой теме нет новых непрочитанных сообщений. Улица потрошителя / Ripper Street [S01-02] (2012-2014) WEB-DLRip, HDTVRip | NewStudio

94 | 40

10.94 ГБ

В этой теме нет новых непрочитанных сообщений. Улица потрошителя / Ripper Street [S01-03] (2012-2015) WEB-DLRip, HDTVRip, WEBRip | NewStudio

215 | 148

17.29 ГБ

В этой теме нет новых непрочитанных сообщений. Улица потрошителя / Ripper Street [S01-04] (2012-2016) WEB-DLRip, HDTVRip, WEBRip | NewStudio

93 | 155

22.36 ГБ

В этой теме нет новых непрочитанных сообщений. Улица потрошителя / Ripper Street [S02] (2013) HDTVRip | NewStudio

35 | 12

5.47 ГБ

В этой теме нет новых непрочитанных сообщений. Улица потрошителя / Ripper Street [S01] (2012) WEB-DL 1080p | NewStudio

7 | 2

18.01 ГБ

В этой теме нет новых непрочитанных сообщений. Улица потрошителя / Ripper Street [S01] (2012) WEB-DLRip | NewStudio

0 | 1

5.47 ГБ




Вы не можете начинать темы
Вы не можете отвечать на сообщения
Вы не можете редактировать свои сообщения
Вы не можете удалять свои сообщения
Вы не можете добавлять вложения

Перейти:  
Для Мосгорсуда, Роскомнадзора и рекламодателей: mosgorsud-torrent[собачка]yandex.ru
 Вход
ppkBB3cker v.2 © 2008-2014 @ PPK
[ Time : 0.064s | 14 Queries | GZIP : Off ]

Торрент трекер RUTOR.IN, Не можете зайти на rutor.org? Какой новый адрес рутор? Какое зеркало рутор? Не работает rutor.org и зеркала? Тогда наш торрент специально для вас. Rutor.in неофициальное зеркало rutor. В случае если у Вас заблокирован rutor или вдруг Вы не можете на него зайти, то Вы без труда сможете скачать бесплатно и без рекламы последние новинки кино, игр, сериалов и прочего у нас, на Rutor.in. Не нужно использовать прокси, чтобы зайти на рутор, достаточно воспользоваться нашим ресурсом. Все новые фильмы, игры, сериалы, книги и музыка за 2013 и 2014 годы через торрент бесплатно. Скачивайте фильмы в хорошем качестве, игры для пк, xbox, playstation без регистрации. У нас вы найдете новые Зарубежные сериалы и Русские сериалы 2013, 2014, 2015 годов. Оставайтесь с нами, качайте любимые фильмы, игры, сериалы, книги и музыку.