img image001 image001 image001 image001 image001 image001 image001 image001 image001 image001 image001 image001 image001 image001 image001

Planets Sun Sun Sun
Статистика раздачи
Автор: Снежана | Размер: 10.89 ГБ | Добавлен: 25 июл 2013
Раздают: 44    Качают: 16
Скачать торрент
Скачать торрент
Описание торрента

СообщениеДобавлено: 25 июл 2013 




Год выпуска: 2011
Производство: DIXI TV
Жанр: Детектив
Продолжительность: ~ 00:45:00
Субтитры: нет
Режиссёр: Георгий Гаврилов, Сергей Лесогоров, Геннадий Иванов, Тимур Алпатов
В ролях: Виталий Емашов, Павел Баршак, Иван Теплов, Дарья Повереннова, Наталья Левина, Владимир Фекленко, Спартак Сумченко, Мария Горбань, Андрей Лебедев, Георгий Сегал, Михаил Хмуров и др.
Описание: От создателей телесериала "Глухарь"!
Сериал расскажет о противостоянии двух невероятно сильных личностей: следователя ФСБ Белова и отчаянного бандита Смолина, которые, однажды столкнувшись, станут личными врагами на всю жизнь. Это будет захватывающий поединок между равновеликими фигурами, одного из которых ведут правильные и положительные чувства и эмоции, второго - самые низменные пороки и страсти.
Любая реклама ОТСУТСТВУЕТ!!!
Сэмпл
Качество: SATRip - AVC [Исходник DVB]
Формат: MKV
Видео кодек: H.264
Аудио кодек: AC3
Видео: x264, 720 х 432**768 х 432 (1.7778=16:9), 25,000 кадр/сек, ~ 1467 Кбит/сек, ~ 0.189 bit/pix
Аудио: AC3, 48.0 KHz, 2 канала(ов), 192 Kbps
Complete name : C:UsersРокиVideosИгра.2011.SATRip-AVC.Metla111Игра.01 серия.2011.SATRip-AVC.Metla111.mkv
Format : Matroska
Format version : Version 2
File size : 558 MiB
Duration : 46mn 55s
Overall bit rate : 1 661 Kbps
Encoded date : UTC 2013-02-19 08:59:14
Writing application : mkvmerge v5.8.0 ('No Sleep / Pillow') built on Sep 2 2012 15:37:04
Writing library : libebml v1.2.3 + libmatroska v1.3.0

Video
ID : 1
Format : AVC
Format/Info : Advanced Video Codec
Format profile : High@L3.1
Format settings, CABAC : Yes
Format settings, ReFrames : 10 frames
Codec ID : V_MPEG4/ISO/AVC
Duration : 46mn 55s
Bit rate : 1 467 Kbps
Width : 720 pixels
Height : 432 pixels
Display aspect ratio : 16:9
Frame rate mode : Constant
Frame rate : 25.000 fps
Color space : YUV
Chroma subsampling : 4:2:0
Bit depth : 8 bits
Scan type : Progressive
Bits/(Pixel*Frame) : 0.189
Stream size : 482 MiB (86%)
Writing library : x264 core 125 r2208 d9d2288
Encoding settings : cabac=1 / ref=10 / deblock=1:-3:-3 / analyse=0x3:0x113 / me=umh / subme=9 / psy=1 / psy_rd=1.00:0.20 / mixed_ref=1 / me_range=32 / chroma_me=1 / trellis=2 / 8x8dct=1 / cqm=0 / deadzone=21,11 / fast_pskip=1 / chroma_qp_offset=-3 / threads=6 / lookahead_threads=1 / sliced_threads=0 / nr=0 / decimate=0 / interlaced=0 / bluray_compat=0 / constrained_intra=0 / bframes=8 / b_pyramid=2 / b_adapt=2 / b_bias=0 / direct=3 / weightb=1 / open_gop=0 / weightp=2 / keyint=250 / keyint_min=25 / scenecut=40 / intra_refresh=0 / rc=2pass / mbtree=0 / bitrate=1467 / ratetol=1.0 / qcomp=0.70 / qpmin=0 / qpmax=69 / qpstep=4 / cplxblur=20.0 / qblur=0.5 / ip_ratio=1.40 / pb_ratio=1.30 / aq=1:1.00
Default : Yes
Forced : No
Color primaries : BT.601 PAL
Transfer characteristics : BT.470 System B, BT.470 System G
Matrix coefficients : BT.601

Audio
ID : 2
Format : AC-3
Format/Info : Audio Coding 3
Mode extension : CM (complete main)
Format settings, Endianness : Big
Codec ID : A_AC3
Duration : 46mn 55s
Bit rate mode : Constant
Bit rate : 192 Kbps
Channel(s) : 2 channels
Channel positions : Front: L R
Sampling rate : 48.0 KHz
Bit depth : 16 bits
Compression mode : Lossy
Stream size : 64.5 MiB (12%)
Default : Yes
Forced : No
raw [info]: 720x432p 16:15 @ 25/1 fps (cfr)
x264 [info]: using SAR=16/15
x264 [info]: using cpu capabilities: MMX2 SSE2Fast SSSE3 FastShuffle SSE4.2
x264 [info]: profile High, level 3.1

x264 [info]: frame I:645 Avg QP:17.07 size: 36965
x264 [info]: frame P:17727 Avg QP:19.39 size: 14455
x264 [info]: frame B:52026 Avg QP:21.47 size: 4543
x264 [info]: consecutive B-frames: 3.9% 4.8% 13.7% 21.6% 19.8% 31.8% 3.2% 0.6% 0.7%
x264 [info]: mb I I16..4: 11.4% 76.3% 12.3%
x264 [info]: mb P I16..4: 2.5% 18.1% 2.0% P16..4: 41.3% 24.9% 9.7% 0.0% 0.0% skip: 1.4%
x264 [info]: mb B I16..4: 0.1% 1.0% 0.2% B16..8: 49.2% 11.4% 2.2% direct: 5.7% skip:30.3% L0:40.0% L1:48.4% BI:11.6%
x264 [info]: 8x8 transform intra:79.5% inter:66.2%
x264 [info]: direct mvs spatial:99.2% temporal:0.8%
x264 [info]: coded y,uvDC,uvAC intra: 91.1% 61.5% 24.5% inter: 28.6% 23.4% 2.8%
x264 [info]: i16 v,h,dc,p: 13% 21% 11% 55%
x264 [info]: i8 v,h,dc,ddl,ddr,vr,hd,vl,hu: 11% 10% 4% 9% 14% 13% 14% 12% 12%
x264 [info]: i4 v,h,dc,ddl,ddr,vr,hd,vl,hu: 11% 13% 2% 9% 15% 14% 14% 11% 11%
x264 [info]: i8c dc,h,v,p: 27% 30% 22% 21%
x264 [info]: Weighted P-Frames: Y:16.8% UV:10.5%
x264 [info]: ref P L0: 48.7% 11.0% 18.7% 5.7% 4.8% 3.1% 2.9% 1.6% 1.6% 1.4% 0.5% 0.1%
x264 [info]: ref B L0: 82.7% 8.8% 3.4% 1.8% 1.1% 0.9% 0.7% 0.4% 0.2%
x264 [info]: ref B L1: 95.4% 4.6%
x264 [info]: kb/s:1467.22






   Похожие торренты   Торрент   Размер 
В этой теме нет новых непрочитанных сообщений. КВН 2011. Премьер-лига.Третья игра 1/8 финала (эфир 2011.07.16) (2011) SATRip

0 | 3

969.53 МБ

В этой теме нет новых непрочитанных сообщений. КВН-2011. Высшая лига. Вторая игра. 1/8 финала [эфир от 05.03] (2011) SATRip

2 | 3

1.18 ГБ

В этой теме нет новых непрочитанных сообщений. КВН-2011. Высшая лига. Четвертая игра. 1/8 финала [эфир от 25.03] (2011) SATRip

2 | 6

1.45 ГБ

В этой теме нет новых непрочитанных сообщений. КВН-2011. Высшая лига. Третья игра. 1/8 финала [эфир от 11.03] (2011) SATRip

3 | 6

1.23 ГБ

В этой теме нет новых непрочитанных сообщений. КВН-2011. Высшая лига. Первая игра [эфир 18.02] (2011) SATRip by KimVlad

2 | 3

1.3 ГБ

В этой теме нет новых непрочитанных сообщений. Что? Где? Когда? - Осенняя серия игр 2011 года - Игра первая (2011) SATRip от КинозалSAT

5 | 2

700.03 МБ

В этой теме нет новых непрочитанных сообщений. Что? Где? Когда? - Осенняя серия игр 2011 года - Игра вторая (2011) SATRip от КинозалSAT

0 | 5

600.04 МБ




Вы не можете начинать темы
Вы не можете отвечать на сообщения
Вы не можете редактировать свои сообщения
Вы не можете удалять свои сообщения
Вы не можете добавлять вложения

Перейти:  
Для Мосгорсуда, Роскомнадзора и рекламодателей: mosgorsud-torrent[собачка]yandex.ru
 Вход
ppkBB3cker v.2 © 2008-2014 @ PPK
[ Time : 0.048s | 15 Queries | GZIP : Off ]

Торрент трекер RUTOR.IN, Не можете зайти на rutor.org? Какой новый адрес рутор? Какое зеркало рутор? Не работает rutor.org и зеркала? Тогда наш торрент специально для вас. Rutor.in неофициальное зеркало rutor. В случае если у Вас заблокирован rutor или вдруг Вы не можете на него зайти, то Вы без труда сможете скачать бесплатно и без рекламы последние новинки кино, игр, сериалов и прочего у нас, на Rutor.in. Не нужно использовать прокси, чтобы зайти на рутор, достаточно воспользоваться нашим ресурсом. Все новые фильмы, игры, сериалы, книги и музыка за 2013 и 2014 годы через торрент бесплатно. Скачивайте фильмы в хорошем качестве, игры для пк, xbox, playstation без регистрации. У нас вы найдете новые Зарубежные сериалы и Русские сериалы 2013, 2014, 2015 годов. Оставайтесь с нами, качайте любимые фильмы, игры, сериалы, книги и музыку.