img image001 image001 image001 image001 image001 image001 image001 image001 image001 image001 image001 image001 image001 image001 image001

Planets Sun Sun Sun
Статистика раздачи
Автор: Снежана | Размер: 15.05 ГБ | Добавлен: 25 июл 2013
Раздают: 122    Качают: 117
Скачать торрент
Скачать торрент
Описание торрента

СообщениеДобавлено: 25 июл 2013 

#77
Год выпуска: 2005 – 2009
Страна: США
Жанр: комедия
Продолжительность: 00:20:00
Перевод: Профессиональный одноголосый закадровый (Кураж-Бамбей)
Русские субтитры: нет

Режиссёр: Джерри Ливайн / Jerry Levine, Дэбби Аллен / Debbie Allen, Кейт Трусделл / Keith Truesdell

В ролях: Тайлер Джеймс Уильямс, Терри Крюс, Тичина Арнольд, Текуан Ричмонд, Имани Хаким, Винсент Мартелла

Описание: Крис — самый старший ребенок, и воспитание сестры с братом частично ложится на него, к тому же, в отличие от них, ему приходится ходить не в обычную, а привилегированную школу. Несмотря на то, что он сразу становится мишенью своих одноклассников, его доброта и ум помогут найти новых друзей.

Сэмпл: http://multi-up.com/838268
Качество: DVDRip
Формат: AVI

Видео:
624x352 (16/9), 23.976 fps, XViD ~1 024 Kbps (0.194 bit/pixel) – Сезон 1: 22 серии
624x352 (16/9), 23.976 fps, XViD ~1 004 Kbps (0.191 bit/pixel) – Сезон 2: 22 серии
624x352 (16/9), 23.976 fps, XViD ~1 025 Kbps (0.195 bit/pixel) – Сезон 3: 22 серии
640x352 (16/9), 23.976 fps, XViD ~1 025 Kbps (0.190 bit/pixel) – Сезон 4: 22 серии
Аудио: Русский: 48 kHz, MPEG Layer 3, 2 ch, 160.00 kbps constant

Раздача от: Релизер: Roman

» В начале сериала Крис учится в школе «Корлеоне», потом в колледже «Таттаглиа». Это две конкурирующие мафиозные семьи из фильма «Крёстный отец». Спортивная команда колледжа называется «Спящая рыба». В фильме «Крёстный отец» Татталья прислали семье Корлеоне мёртвую рыбу в знак того, что их человек, Лука Брази, «спит с рыбами».
» Финал последней серии 4 сезона скопирован с финала последней серии 6 сезона сериала «Клан Сопрано» (где вся семья сидит в закусочной, а последний не может припарковать машину).


General
Complete name : ..Everybody Hates ChrisSeason 1�1 – Everybody Hates The Pilot.avi
Format : AVI
Format/Info : Audio Video Interleave
File size : 172 MiB
Duration : 21mn 2s
Overall bit rate : 1 145 Kbps
Writing application : VirtualDubMod 1.5.10.2 (build 2540/release)
Writing library : VirtualDubMod build 2540/release

Video
ID : 0
Format : MPEG-4 Visual
Format profile : Advanced Simple@L5
Format settings, BVOP : 2
Format settings, QPel : No
Format settings, GMC : No warppoints
Format settings, Matrix : Default (H.263)
Muxing mode : Packed bitstream
Codec ID : XVID
Codec ID/Hint : XviD
Duration : 21mn 2s
Bit rate : 975 Kbps
Width : 624 pixels
Height : 352 pixels
Display aspect ratio : 16:9
Frame rate : 23.976 fps
Color space : YUV
Chroma subsampling : 4:2:0
Bit depth : 8 bits
Scan type : Progressive
Compression mode : Lossy
Bits/(Pixel*Frame) : 0.185
Stream size : 147 MiB (85%)
Writing library : XviD 1.2.0.dev47 (UTC 2006-11-01)

Audio
ID : 1
Format : MPEG Audio
Format version : Version 1
Format profile : Layer 3
Mode : Joint stereo
Codec ID : 55
Codec ID/Hint : MP3
Duration : 21mn 2s
Bit rate mode : Constant
Bit rate : 160 Kbps
Channel(s) : 2 channels
Sampling rate : 44.1 KHz
Compression mode : Lossy
Stream size : 24.1 MiB (14%)
Alignment : Split accross interleaves
Interleave, duration : 42 ms (1.00 video frame)
Interleave, preload duration : 500 ms







   Похожие торренты   Торрент   Размер 
В этой теме нет новых непрочитанных сообщений. Все ненавидят Криса / Everybody Hates Chris [S01-04] (2005-2009) DVDRip от Кураж-Бамбей

35 | 39

15 ГБ

В этой теме нет новых непрочитанных сообщений. Все ненавидят Криса / Everybody Hates Chris [S01] (2005-2006) DVDRip-AVC | Кураж-Бамбей

18 | 17

7.79 ГБ

В этой теме нет новых непрочитанных сообщений. Все ненавидят Криса / Everybody Hates Chris [03х20] (2009) DVDRip от Кураж-Бамбей

5 | 3

176.01 МБ

В этой теме нет новых непрочитанных сообщений. Все ненавидят Криса / Everybody Hates Chris [03х1-19] (2009) DVDRip от Кураж-Бамбей

1 | 2

3.28 ГБ

В этой теме нет новых непрочитанных сообщений. Все ненавидят Криса / Everybody Hates Chris [04x19] (2009) DVDRip от Кураж-Бамбей

0 | 3

177.74 МБ

В этой теме нет новых непрочитанных сообщений. Все ненавидят Криса / Everybody Hates Chris [04х18] (2009) DVDRip от Кураж-Бамбей

0 | 2

177.21 МБ

В этой теме нет новых непрочитанных сообщений. Все ненавидят Криса / Everybody Hates Chris [04х17] (2009) DVDRip от Кураж-Бамбей

0 | 1

177.65 МБ




Вы не можете начинать темы
Вы не можете отвечать на сообщения
Вы не можете редактировать свои сообщения
Вы не можете удалять свои сообщения
Вы не можете добавлять вложения

Перейти:  
Для Мосгорсуда, Роскомнадзора и рекламодателей: mosgorsud-torrent[собачка]yandex.ru
 Вход
ppkBB3cker v.2 © 2008-2014 @ PPK
[ Time : 0.037s | 14 Queries | GZIP : Off ]

Торрент трекер RUTOR.IN, Не можете зайти на rutor.org? Какой новый адрес рутор? Какое зеркало рутор? Не работает rutor.org и зеркала? Тогда наш торрент специально для вас. Rutor.in неофициальное зеркало rutor. В случае если у Вас заблокирован rutor или вдруг Вы не можете на него зайти, то Вы без труда сможете скачать бесплатно и без рекламы последние новинки кино, игр, сериалов и прочего у нас, на Rutor.in. Не нужно использовать прокси, чтобы зайти на рутор, достаточно воспользоваться нашим ресурсом. Все новые фильмы, игры, сериалы, книги и музыка за 2013 и 2014 годы через торрент бесплатно. Скачивайте фильмы в хорошем качестве, игры для пк, xbox, playstation без регистрации. У нас вы найдете новые Зарубежные сериалы и Русские сериалы 2013, 2014, 2015 годов. Оставайтесь с нами, качайте любимые фильмы, игры, сериалы, книги и музыку.