img image001 image001 image001 image001 image001 image001 image001 image001 image001 image001 image001 image001 image001 image001 image001

Planets Sun Sun Sun
Статистика раздачи
Автор: Снежана | Размер: 13.4 ГБ | Добавлен: 25 июл 2013
Раздают: 7    Качают: 8
Скачать торрент
Скачать торрент
Описание торрента

СообщениеДобавлено: 25 июл 2013 

#77

Год выпуска: 2012
Название: Корабль / Ковчег
Оригинальное название: El Barco
Страна: Испания
Производство: Antena 3
Жанр: Фантастика, драма, приключения
Продолжительность: 16 х ~ 01:20:00
Перевод: Профессиональный (многоголосый закадровый) - DreamRecords
Субтитры: Отсутствуют

Режиссёр: Фернандо Гонзалез Молина, Дэвид Молина

В ролях: Хуан Хосе Артеро, Жизелль Кальдерон, Луис Каледжо, Марио Касас, Бернабе Фернандес, Хавьер Хернандез, Ivan Massagué, Ирен Монтала, Марина Салас, Нюс Санс, Бланка Суарез, Хуан Пабло Шук

Описание: Мировая катастрофа вызывает катаклизм, который ведет к исчезновению Земли. На планете, покрытой водой, члены экипажа учебного корабля кажутся единственными оставшимися в живых людьми...

Доп. информация:
Озвучено: DreamRecords
Автор перевода: Александра Романенко (1-3 Серии), Дарья Селиверстова (с 4 серии)
Монтаж и сведение звука: Алексей Фокин
Роли озвучивали: Михаил Суслов, Владимир Чистохин,Светлана Чистохина,Мила Мирелли



Добавлена 16-ая серия. Конец сериала.

Качество: HDTVRip
Формат: AVI
Видео кодек: XviD
Аудио кодек: MP3
Видео: 720x400, 23.976 fps, 1 295 Kbps, 0.188 bits/pixel
Аудио: MP3, 48 kHz, 2 ch, 192 kbps

01. El tripulante de hono
02. El arte de la guerra
03. Lo que la luz esconde
04. 100 metros de tierra firme
05. El dueño del mundo
06. Fukushima Blues
07. La Boda
08. Quién es quién
09. Энергия, которая движет миром / La energia que mueve el mundo
10. Что остается от мира / Lo que queda del mundo
11. Las cosas a escondidas
12. Ничего / Nada por aquí
13. El gato y el ratón
14. Un ruido en el cielo
15. Fuera de este mundo
16. La ultima bala
Format : AVI
Format/Info : Audio Video Interleave
File size : 863 MiB
Duration : 1h 20mn
Overall bit rate : 1 496 Kbps
Writing application : VirtualDubModRus 1.5.10.2 (build 2542/release)
Writing library : VirtualDubMod build 2542/release

Video
ID : 0
Format : MPEG-4 Visual
Format profile : Advanced Simple@L5
Format settings, BVOP : 1
Format settings, QPel : No
Format settings, GMC : No warppoints
Format settings, Matrix : Default (MPEG)
Codec ID : XVID
Codec ID/Hint : XviD
Duration : 1h 20mn
Bit rate : 1 295 Kbps
Width : 720 pixels
Height : 400 pixels
Display aspect ratio : 16:9
Frame rate : 23.976 fps
Color space : YUV
Chroma subsampling : 4:2:0
Bit depth : 8 bits
Scan type : Progressive
Compression mode : Lossy
Bits/(Pixel*Frame) : 0.187
Stream size : 747 MiB (87%)
Writing library : XviD 64

Audio
ID : 1
Format : MPEG Audio
Format version : Version 1
Format profile : Layer 3
Mode : Joint stereo
Codec ID : 55
Codec ID/Hint : MP3
Duration : 1h 20mn
Bit rate mode : Constant
Bit rate : 192 Kbps
Channel(s) : 2 channels
Sampling rate : 48.0 KHz
Compression mode : Lossy
Stream size : 111 MiB (13%)
Alignment : Aligned on interleaves
Interleave, duration : 42 ms (1.00 video frame)
Interleave, preload duration : 504 ms

Релиз от:



   Похожие торренты   Торрент   Размер 
В этой теме нет новых непрочитанных сообщений. Корабль / Ковчег / El Barco [S03] (2012) HDTV 720p | DreamRecords

52 | 7

32.75 ГБ

В этой теме нет новых непрочитанных сообщений. Корабль / Ковчег / El Barco [S01-03] (2011-2013) HDTVRip | Axn Sci Fi

113 | 120

43.2 ГБ

В этой теме нет новых непрочитанных сообщений. Корабль / Ковчег / El Barco [S01-03] (2011-2013) WEB-DL-AVC 720p l Axn Sci Fi

809 | 187

57.05 ГБ

В этой теме нет новых непрочитанных сообщений. Корабль / El Barco [S02] (2012) HDTVRip | P

75 | 22

14.16 ГБ

В этой теме нет новых непрочитанных сообщений. Корабль / El Barco [S01] (2011) HDTVRip | SUB

6 | 2

9.19 ГБ

В этой теме нет новых непрочитанных сообщений. Корабль / El Barco [S01] (2011) HDTVRip | P

26 | 11

13.03 ГБ

В этой теме нет новых непрочитанных сообщений. Корабль / El Barco [S02] (2011) HDTVRip | L

7 | 7

13.35 ГБ




Вы не можете начинать темы
Вы не можете отвечать на сообщения
Вы не можете редактировать свои сообщения
Вы не можете удалять свои сообщения
Вы не можете добавлять вложения

Перейти:  
Для Мосгорсуда, Роскомнадзора и рекламодателей: mosgorsud-torrent[собачка]yandex.ru
 Вход
ppkBB3cker v.2 © 2008-2014 @ PPK
[ Time : 0.043s | 14 Queries | GZIP : Off ]

Торрент трекер RUTOR.IN, Не можете зайти на rutor.org? Какой новый адрес рутор? Какое зеркало рутор? Не работает rutor.org и зеркала? Тогда наш торрент специально для вас. Rutor.in неофициальное зеркало rutor. В случае если у Вас заблокирован rutor или вдруг Вы не можете на него зайти, то Вы без труда сможете скачать бесплатно и без рекламы последние новинки кино, игр, сериалов и прочего у нас, на Rutor.in. Не нужно использовать прокси, чтобы зайти на рутор, достаточно воспользоваться нашим ресурсом. Все новые фильмы, игры, сериалы, книги и музыка за 2013 и 2014 годы через торрент бесплатно. Скачивайте фильмы в хорошем качестве, игры для пк, xbox, playstation без регистрации. У нас вы найдете новые Зарубежные сериалы и Русские сериалы 2013, 2014, 2015 годов. Оставайтесь с нами, качайте любимые фильмы, игры, сериалы, книги и музыку.