img image001 image001 image001 image001 image001 image001 image001 image001 image001 image001 image001 image001 image001 image001 image001

Planets Sun Sun Sun
Статистика раздачи
Автор: Снежана | Размер: 52.57 ГБ | Добавлен: 25 июл 2013
Раздают: 0    Качают: 2
Скачать торрент
Скачать торрент
Описание торрента

СообщениеДобавлено: 25 июл 2013 

Стрела
Arrow







Год выпуска: 2012
Страна: США
Жанр: фантастика, драма, детектив, приключения
Продолжительность: ~42 минуты серия
Перевод: профессиональный (многоголосый, закадровый)
Субтитры: английские

Режиссер: Дэвид Баррет
Сценарий: Грег Берланти, Марк Гуггенхайм, Эндрю Крейсберг
Продюссер: Джон Уоллес, Грег Берланти, Марк Гуггенхайм

В ролях: Стивен Амелл, Эмили Бетт Рикардс, Кэти Кэссиди, Уилла Холлэнд, Джейми Шеридан, Жаклин МакИннес Вуд, Колин Сэлмон, Кэтлин Гати, Пол Блекторн, Сюзанна Томпсон
Описание: После кораблекрушения, плейбой миллиардер Оливер Куин пропадает и считается погибшим в течение пяти лет, после чего его обнаруживают живым на затерянном острове в Тихом океане. Когда он возвращается домой в Старлинг-Сити, его преданная мать Мойра, столь любимая сестра Теа, и лучший друг Томми приветствуют его дома, но они видят, что Оливер изменился после испытаний на острове. Хотя Оливер скрывает правду о человеке, которым он стал...
Качество: WEB-DL 720p и 1080p
Формат: M4V
Видео кодек: H.264
Аудио кодек: AAC, AC-3
Видео 1080p 1920x1080; 23.976 fps; ~5000 kbps avg
Видео 720p: 1280x720; 23,976 fps; ~3800 kbps avg
Аудио #1 : Russian, AAC / AC-3 , 157 / 448 Kbps | LostFilm |
Аудио #2 : English, AAC / AC-3 , 161 / 384 Kbps

1: Pilot / Пилот
2: Honor Thy Father / Чти отца своего
3: Lone Gunmen / Одинокие стрелки
4: An Innocent Man / Невиновный
5: Damaged / Ущербный
6: Legacies / Наследие
7: Muse of Fire / Муза огня
8: Vendetta / Вендетта
9: Year's End / Конец года
10: Burned / Сгоревший
11: Trust But Verify / Доверяй, но проверяй
12: Vertigo / Вертиго
13: Betrayal / Предательство
14: The Odyssey / Одиссея
15: Dodger / Ловкач
16: Dead to Rights / Пойман на месте
Media Type: TV Show HD 720p
Content ID: 569424638
Rating: TV-14
Long Deion: In the series premiere, billionaire Oliver Queen returns to Starling City after being stranded on a remote island for five years and adopts the persona of Arrow to fight crime.
Deion: In the series premiere, billionaire Oliver Queen returns to Starling City after being stranded on a remote island for five years and adopts the persona of Arrow to fight crime.
TV Season: 1
TV Episode ID: 101
TV Network: The CW
TV Episode #: 1
TV Show: Arrow
Disk #: 1/0
Track #: 1/0
Release Date: 2012-10-10T07:00:00Z
Genre: Drama
Album: Arrow, Season 1
Album Artist: Arrow
Artist: Arrow
Name: Pilot
Sort Album: Arrow, Season 1

Общее
Полное имя : H:ArrowSeason 11-01 Pilot (1080p HD).m4v
Формат : MPEG-4
Идентификатор кодека : M4V
Размер файла : 1,88 Гбайт
Продолжительность : 42 м.
Режим общего битрейта : Переменный
Общий поток : 6329 Кбит/сек
Название фильма : Pilot
Альбом : Arrow, Season 1
Альбом/Исполнитель : Arrow
Часть/Положение : 1
Часть/Всего : 0
Трек/Положение : 1
Трек/Всего : 0
Исполнитель : Arrow
Жанр : Drama
Дата записи : UTC 2012-10-10 07:00:00
Дата кодирования : UTC 2012-10-21 10:38:57
Дата пометки : UTC 2012-10-21 10:44:52
Программа кодирования : MkvToMp4 [www.mkvtomp4.ru] version 0.221a
Обложка : Yes
tvsh : Arrow
tvnn : The CW
tven : 101
tvsn : 1
tves : 1
soal : Arrow, Season 1
sosn : Arrow
desc : In the series premiere, billionaire Oliver Queen returns to Starling City after being stranded on a remote island for five years and adopts the persona of Arrow to fight crime.
ldes : In the series premiere, billionaire Oliver Queen returns to Starling City after being stranded on a remote island for five years and adopts the persona of Arrow to fight crime.
hdvd : 2
stik : 10
akID : -1
sfID : 0
cnID : 569424638
iTunEXTC : us-tv|TV-14|500|

Видео
Идентификатор : 1
Формат : AVC
Формат/Информация : Advanced Video Codec
Профиль формата : High@L4.0
Параметр CABAC формата : Да
Параметр ReFrames формата : 4 кадра
Идентификатор кодека : avc1
Идентификатор кодека/Информация : Advanced Video Coding
Продолжительность : 42 м.
Битрейт : 5166 Кбит/сек
Максимальный битрейт : 13,4 Мбит/сек
Ширина : 1920 пикселей
Высота : 1080 пикселей
Соотношение сторон : 16:9
Режим частоты кадров : Постоянный
Частота кадров : 23,976 кадра/сек
Цветовое пространство : YUV
Субдискретизация насыщенности : 4:2:0
Битовая глубина : 8 бит
Тип развёртки : Прогрессивная
Бит/(Пиксели*Кадры) : 0.104
Размер потока : 1,54 Гбайт (82%)
Заголовок : Arrow 1x01
Язык : English
Дата кодирования : UTC 2012-10-21 10:38:57
Дата пометки : UTC 2012-10-21 10:42:46
Основные цвета : BT.709-5, BT.1361, IEC 61966-2-4, SMPTE RP177
Характеристики трансфера : BT.709-5, BT.1361
Коэффициенты матрицы : BT.709-5, BT.1361, IEC 61966-2-4 709, SMPTE RP177

Аудио #1
Идентификатор : 2
Формат : AAC
Формат/Информация : Advanced Audio Codec
Профиль формата : LC
Идентификатор кодека : 40
Продолжительность : 42 м.
Вид битрейта : Переменный
Битрейт : 157 Кбит/сек
Максимальный битрейт : 245 Кбит/сек
Каналы : 2 канала
Расположение каналов : Front: L R
Частота : 48,0 КГц
Метод сжатия : С потерями
Размер потока : 47,8 Мбайт (2%)
Заголовок : AAC LostFilm
Язык : Russian
Дата кодирования : UTC 2012-10-21 10:41:31
Дата пометки : UTC 2012-10-21 10:42:46

Аудио #2
Идентификатор : 3
Формат : AC-3
Формат/Информация : Audio Coding 3
Расширение режима : CM (complete main)
Идентификатор кодека : ac-3
Продолжительность : 42 м.
Вид битрейта : Постоянный
Битрейт : 448 Кбит/сек
Каналы : 6 каналов
Расположение каналов : Front: L C R, Side: L R, LFE
Частота : 48,0 КГц
Битовая глубина : 16 бит
Метод сжатия : С потерями
Размер потока : 136 Мбайт (7%)
Заголовок : AC3 LostFilm
Язык : Russian
Дата кодирования : UTC 2012-10-21 10:41:33
Дата пометки : UTC 2012-10-21 10:42:46

Аудио #3
Идентификатор : 4
Формат : AAC
Формат/Информация : Advanced Audio Codec
Профиль формата : LC
Идентификатор кодека : 40
Продолжительность : 42 м.
Вид битрейта : Переменный
Битрейт : 161 Кбит/сек
Максимальный битрейт : 247 Кбит/сек
Каналы : 2 канала
Расположение каналов : Front: L R
Частота : 48,0 КГц
Метод сжатия : С потерями
Размер потока : 49,1 Мбайт (3%)
Язык : English
Дата кодирования : UTC 2012-10-21 10:42:12
Дата пометки : UTC 2012-10-21 10:42:46

Аудио #4
Идентификатор : 5
Формат : AC-3
Формат/Информация : Audio Coding 3
Расширение режима : CM (complete main)
Идентификатор кодека : ac-3
Продолжительность : 42 м.
Вид битрейта : Постоянный
Битрейт : 384 Кбит/сек
Каналы : 6 каналов
Расположение каналов : Front: L C R, Side: L R, LFE
Частота : 48,0 КГц
Битовая глубина : 16 бит
Метод сжатия : С потерями
Размер потока : 117 Мбайт (6%)
Язык : English
Дата кодирования : UTC 2012-10-21 10:42:14
Дата пометки : UTC 2012-10-21 10:42:46

Текст
Идентификатор : 6
Формат : Timed text
Режим смешивания : sbtl
Идентификатор кодека : tx3g
Продолжительность : 42 м.
Вид битрейта : Переменный
Битрейт : 69 бит/сек
Размер потока : 21,2 Кбайт (0%)
Язык : English
Дата кодирования : UTC 2012-10-21 10:42:45
Дата пометки : UTC 2012-10-21 10:42:46

Общее
Полное имя : H:ArrowSeason 11-01 Pilot (HD).m4v
Формат : MPEG-4
Идентификатор кодека : M4V
Размер файла : 1,49 Гбайт
Продолжительность : 42 м.
Режим общего битрейта : Переменный
Общий поток : 5013 Кбит/сек
Название фильма : Pilot
Альбом : Arrow, Season 1
Альбом/Исполнитель : Arrow
Часть/Положение : 1
Часть/Всего : 0
Трек/Положение : 1
Трек/Всего : 0
Исполнитель : Arrow
Жанр : Drama
Дата записи : UTC 2012-10-10 07:00:00
Дата кодирования : UTC 2012-10-12 21:03:41
Дата пометки : UTC 2012-10-12 21:08:42
Программа кодирования : MkvToMp4 [www.mkvtomp4.ru] version 0.221a
Обложка : Yes
tvsh : Arrow
tvnn : The CW
tven : 101
tvsn : 1
tves : 1
soal : Arrow, Season 1
sosn : Arrow
desc : In the series premiere, billionaire Oliver Queen returns to Starling City after being stranded on a remote island for five years and adopts the persona of Arrow to fight crime.
ldes : In the series premiere, billionaire Oliver Queen returns to Starling City after being stranded on a remote island for five years and adopts the persona of Arrow to fight crime.
hdvd : 1
stik : 10
akID : -1
sfID : 0
cnID : 569424638
iTunEXTC : us-tv|TV-14|500|

Видео
Идентификатор : 1
Формат : AVC
Формат/Информация : Advanced Video Codec
Профиль формата : High@L3.1
Параметр CABAC формата : Нет
Параметр ReFrames формата : 2 кадра
Параметр GOP формата : N=1
Идентификатор кодека : avc1
Идентификатор кодека/Информация : Advanced Video Coding
Продолжительность : 42 м.
Битрейт : 3850 Кбит/сек
Максимальный битрейт : 13,1 Мбит/сек
Ширина : 1280 пикселей
Высота : 720 пикселей
Соотношение сторон : 16:9
Режим частоты кадров : Постоянный
Частота кадров : 23,976 кадра/сек
Цветовое пространство : YUV
Субдискретизация насыщенности : 4:2:0
Битовая глубина : 8 бит
Тип развёртки : Прогрессивная
Бит/(Пиксели*Кадры) : 0.174
Размер потока : 1,14 Гбайт (77%)
Заголовок : Arrow 1x01
Язык : English
Дата кодирования : UTC 2012-10-12 21:03:41
Дата пометки : UTC 2012-10-12 21:06:51
Основные цвета : BT.709-5, BT.1361, IEC 61966-2-4, SMPTE RP177
Характеристики трансфера : BT.709-5, BT.1361
Коэффициенты матрицы : BT.709-5, BT.1361, IEC 61966-2-4 709, SMPTE RP177

Аудио #1
Идентификатор : 2
Формат : AAC
Формат/Информация : Advanced Audio Codec
Профиль формата : LC
Идентификатор кодека : 40
Продолжительность : 42 м.
Вид битрейта : Переменный
Битрейт : 157 Кбит/сек
Максимальный битрейт : 245 Кбит/сек
Каналы : 2 канала
Расположение каналов : Front: L R
Частота : 48,0 КГц
Метод сжатия : С потерями
Размер потока : 47,8 Мбайт (3%)
Заголовок : AAC LostFilm
Язык : Russian
Дата кодирования : UTC 2012-10-12 21:05:49
Дата пометки : UTC 2012-10-12 21:06:51

Аудио #2
Идентификатор : 3
Формат : AC-3
Формат/Информация : Audio Coding 3
Расширение режима : CM (complete main)
Идентификатор кодека : ac-3
Продолжительность : 42 м.
Вид битрейта : Постоянный
Битрейт : 448 Кбит/сек
Каналы : 6 каналов
Расположение каналов : Front: L C R, Side: L R, LFE
Частота : 48,0 КГц
Битовая глубина : 16 бит
Метод сжатия : С потерями
Размер потока : 136 Мбайт (9%)
Заголовок : AC3 LostFilm
Язык : Russian
Дата кодирования : UTC 2012-10-12 21:05:50
Дата пометки : UTC 2012-10-12 21:06:51

Аудио #3
Идентификатор : 4
Формат : AAC
Формат/Информация : Advanced Audio Codec
Профиль формата : LC
Идентификатор кодека : 40
Продолжительность : 42 м.
Вид битрейта : Переменный
Битрейт : 161 Кбит/сек
Максимальный битрейт : 247 Кбит/сек
Каналы : 2 канала
Расположение каналов : Front: L R
Частота : 48,0 КГц
Метод сжатия : С потерями
Размер потока : 49,1 Мбайт (3%)
Язык : English
Дата кодирования : UTC 2012-10-12 21:06:21
Дата пометки : UTC 2012-10-12 21:06:51

Аудио #4
Идентификатор : 5
Формат : AC-3
Формат/Информация : Audio Coding 3
Расширение режима : CM (complete main)
Идентификатор кодека : ac-3
Продолжительность : 42 м.
Вид битрейта : Постоянный
Битрейт : 384 Кбит/сек
Каналы : 6 каналов
Расположение каналов : Front: L C R, Side: L R, LFE
Частота : 48,0 КГц
Битовая глубина : 16 бит
Метод сжатия : С потерями
Размер потока : 117 Мбайт (8%)
Язык : English
Дата кодирования : UTC 2012-10-12 21:06:23
Дата пометки : UTC 2012-10-12 21:06:51

Текст
Идентификатор : 6
Формат : Timed text
Режим смешивания : sbtl
Идентификатор кодека : tx3g
Продолжительность : 42 м.
Вид битрейта : Переменный
Битрейт : 69 бит/сек
Размер потока : 21,2 Кбайт (0%)
Язык : English
Дата кодирования : UTC 2012-10-12 21:06:51
Дата пометки : UTC 2012-10-12 21:06:51





Релиз подготовлен для просмотра на Apple TV, iPad
Для просмотра данного релиза на компьютере с ОС Windows рекомендуется использовать
VLC media player
ВНИМАНИЕ! РАЗДАЧА ВЕДЕТСЯ ПУТЕМ ДОБАВЛЕНИЯ НОВЫХ СЕРИЙ! ПРИ ОБНОВЛЕНИИ РАЗДАЧИ НУЖНО ОБНОВИТЬ ТОЛЬКО ТОРРЕНТ ФАЙЛ, УКАЗАВ ТУЖЕ ПАПКУ, ГДЕ ЛЕЖАТ ПРЕДЫДУЩИЕ СЕРИИ
Внимание! Раздача ведётся путём добавления новых серий, при каждом добавлении создаётся новый торрент. Чтобы начать докачку новой серии, пользователям необходимо сделать следующее:
(1) остановить скачивание,
(2) удалить старый торрент у себя из клиента (старые серии удалять не надо),
(3) скачать новый торрент и запустить его у себя в клиенте вместо старого, при этом указать клиенту путь в старую папку куда и должно происходить скачивание новых серий.

Ваш клиент при этом должен произвести хеширование (проверку) старой папки (если не производит сам - помогите ему сделать это), и будет докачивать только те серии которых у вас ещё нет. Старые серии при этом не удаляются, а продолжают раздаваться!

Если вы уже удалили старые серии, то предотвратить повторную закачку старых серий можно, отжав галочку в соответствующих местах при запуске нового торрента. По возможности, желательно не удалять старые серии как можно дольше чтобы релизёр не столько продолжал раздавать старые серии, а смог сконцентрироваться на новых.





   Похожие торренты   Торрент   Размер 
В этой теме нет новых непрочитанных сообщений. Стрела / Arrow [01x01-10] (2012-2013) WEB-DL 1080p | LostFilm

1 | 7

16.95 ГБ

В этой теме нет новых непрочитанных сообщений. Стрела / Arrow [01x01-23] (2012) WEB-DL-720p | LostFilm

85 | 109

32.78 ГБ

В этой теме нет новых непрочитанных сообщений. Стрела / Arrow [01x01-17] (2012-2013) WEB-DL 720p | LostFilm

3 | 4

24.22 ГБ

В этой теме нет новых непрочитанных сообщений. Стрела / Arrow [01x01-18 из 22] (2012-2013) WEB-DLRip-AVC 720p l LostFilm

2 | 5

19.02 ГБ

В этой теме нет новых непрочитанных сообщений. Стрела / Arrow [01x01-21 из 22] (2012-2013) WEB-DLRip-AVC 720p l LostFilm

1 | 9

22.19 ГБ

В этой теме нет новых непрочитанных сообщений. Стрела / Arrow [01x01-22] (2012) WEB-DLRip-AVC | LostFilm

2 | 7

12.29 ГБ

В этой теме нет новых непрочитанных сообщений. Стрела / Arrow [01x01-23] (2012) WEB-DLRip-AVC | LostFilm

33 | 30

12.85 ГБ




Вы не можете начинать темы
Вы не можете отвечать на сообщения
Вы не можете редактировать свои сообщения
Вы не можете удалять свои сообщения
Вы не можете добавлять вложения

Перейти:  
Для Мосгорсуда, Роскомнадзора и рекламодателей: mosgorsud-torrent[собачка]yandex.ru
 Вход
ppkBB3cker v.2 © 2008-2014 @ PPK
[ Time : 0.052s | 16 Queries | GZIP : Off ]

Торрент трекер RUTOR.IN, Не можете зайти на rutor.org? Какой новый адрес рутор? Какое зеркало рутор? Не работает rutor.org и зеркала? Тогда наш торрент специально для вас. Rutor.in неофициальное зеркало rutor. В случае если у Вас заблокирован rutor или вдруг Вы не можете на него зайти, то Вы без труда сможете скачать бесплатно и без рекламы последние новинки кино, игр, сериалов и прочего у нас, на Rutor.in. Не нужно использовать прокси, чтобы зайти на рутор, достаточно воспользоваться нашим ресурсом. Все новые фильмы, игры, сериалы, книги и музыка за 2013 и 2014 годы через торрент бесплатно. Скачивайте фильмы в хорошем качестве, игры для пк, xbox, playstation без регистрации. У нас вы найдете новые Зарубежные сериалы и Русские сериалы 2013, 2014, 2015 годов. Оставайтесь с нами, качайте любимые фильмы, игры, сериалы, книги и музыку.
cron