img image001 image001 image001 image001 image001 image001 image001 image001 image001 image001 image001 image001 image001 image001 image001

Planets Sun Sun Sun
Статистика раздачи
Автор: Снежана | Размер: 14.14 ГБ | Добавлен: 25 июл 2013
Раздают: 0    Качают: 1
Скачать торрент
Скачать торрент
Описание торрента

СообщениеДобавлено: 25 июл 2013 

#77

Название: Свадебные музыканты / Свадебная группа
Оригинальное название: Wedding Band
Год выпуска: 2012
Страна: США
Жанр: Комедия
Продолжительность: 10 х ~ 00:42:00
Перевод: Профессиональный (многоголосый закадровый) - DreamRecords
Субтитры: Русские
Режиссер: Адам Дэвидсон, Кевин Даулинг, Дженнифер Гетцингер

В ролях: Брайан Остин Грин, Питер Кэмбор, Хэролд Перрино, Дерек Миллер, Дженни Уэйд, Мелора Хардин, Кэтрин Фиоре, Билл Блэйр, Кристиан Иджин Линк, Стефен Гроув

Описание: Свадебные музыканты – это история о группе парней, которые мечтают стать звёздами рок-н-ролла, но пока что спасаются от серых будней выступлениями на свадьбах. Заядлые друзья: Томми, вечный холостяк, и Эдди, отец семейства, эти ребята – звёзды выходного дня. Вот только, на вечеринках они не оттягиваются, а работают. Их аудитория – подружки невесты, выпивка для них бесплатна, а надежда всё ещё жива. Группа не остановится ни перед чем, чтобы сделать каждую свадьбу, день рождения или бар-мицву незабываемыми…



Перевод: Ольга Галайда
Озвучка: Михаил Суслов. Владимир Чистохин, Светлана Чистохина, Анастасия Флигина
Алексей Фокин

Работа со звуком: Алексей Фокин



Качество: HDTVRip 720р
Формат: MKV
Видео кодек: H.264
Аудио кодек: AC3
Видео: 1280x720, 23.976 fps, 3 826 Kbps, 0.173 bit/pixel
Аудио rus: AC-3, 48.0 KHz, 6 ch, 448 Kbps
Аудио еng: AC-3, 48.0 KHz, 6 ch, 448 Kbps

Добавлена 10-ая серия. Сезон полностью.

01. Pilot
02. Я люблю колледж / I Love College
03. Не забывай обо мне / Don't Forget About Me
04. Время в моей жизни / Time of My Life
05. Отдайся же музыке / Get Down on It
06. Мы — семья / We Are Family
07. Я не хочу взрослеть / I Don't Wanna Grow Up
08. 99 проблем / 99 Problems - 5 января 2013
09. Личная вселенная / Personal Universe
10. End of the World As We Know It
Format : Matroska
Format version : Version 2
File size : 1.38 GiB
Duration : 41mn 7s
Overall bit rate : 4 818 Kbps
Encoded date : UTC 2012-11-24 18:44:56
Writing application : mkvmerge v5.8.0 ('No Sleep / Pillow') built on Sep 2 2012 15:37:04
Writing library : libebml v1.2.3 + libmatroska v1.3.0

Video
ID : 1
Format : AVC
Format/Info : Advanced Video Codec
Format profile : High@L4.1
Format settings, CABAC : Yes
Format settings, ReFrames : 5 frames
Codec ID : V_MPEG4/ISO/AVC
Duration : 41mn 7s
Bit rate : 3 826 Kbps
Width : 1 280 pixels
Height : 720 pixels
Display aspect ratio : 16:9
Frame rate mode : Constant
Frame rate : 23.976 fps
Color space : YUV
Chroma subsampling : 4:2:0
Bit depth : 8 bits
Scan type : Progressive
Bits/(Pixel*Frame) : 0.173
Stream size : 1.10 GiB (79%)
Writing library : x264 core 128 r2216 198a7ea
Encoding settings : cabac=1 / ref=5 / deblock=1:0:0 / analyse=0x3:0x113 / me=umh / subme=8 / psy=1 / psy_rd=1.00:0.00 / mixed_ref=1 / me_range=16 / chroma_me=1 / trellis=1 / 8x8dct=1 / cqm=0 / deadzone=21,11 / fast_pskip=1 / chroma_qp_offset=-2 / threads=18 / lookahead_threads=3 / sliced_threads=0 / nr=0 / decimate=1 / interlaced=0 / bluray_compat=0 / constrained_intra=0 / bframes=3 / b_pyramid=2 / b_adapt=2 / b_bias=0 / direct=3 / weightb=1 / open_gop=0 / weightp=2 / keyint=250 / keyint_min=23 / scenecut=40 / intra_refresh=0 / rc_lookahead=50 / rc=crf / mbtree=1 / crf=18.0 / qcomp=0.60 / qpmin=0 / qpmax=69 / qpstep=4 / ip_ratio=1.40 / aq=1:1.00
Language : English
Default : Yes
Forced : No
Matrix coefficients : BT.709

Audio #1
ID : 2
Format : AC-3
Format/Info : Audio Coding 3
Mode extension : CM (complete main)
Format settings, Endianness : Big
Codec ID : A_AC3
Duration : 41mn 7s
Bit rate mode : Constant
Bit rate : 448 Kbps
Channel(s) : 6 channels
Channel positions : Front: L C R, Side: L R, LFE
Sampling rate : 48.0 KHz
Bit depth : 16 bits
Compression mode : Lossy
Stream size : 132 MiB (9%)
Title : DreamRecords
Language : Russian
Default : Yes
Forced : No

Audio #2
ID : 3
Format : AC-3
Format/Info : Audio Coding 3
Mode extension : CM (complete main)
Format settings, Endianness : Big
Codec ID : A_AC3
Duration : 41mn 7s
Bit rate mode : Constant
Bit rate : 448 Kbps
Channel(s) : 6 channels
Channel positions : Front: L C R, Side: L R, LFE
Sampling rate : 48.0 KHz
Bit depth : 16 bits
Compression mode : Lossy
Stream size : 132 MiB (9%)
Title : Original
Language : English
Default : No
Forced : No

Text
ID : 4
Format : UTF-8
Codec ID : S_TEXT/UTF8
Codec ID/Info : UTF-8 Plain Text
Title : Rus Sub
Language : Russian
Default : No
Forced : No

Релиз от:



   Похожие торренты   Торрент   Размер 
В этой теме нет новых непрочитанных сообщений. Свадебные музыканты / Свадебная группа / Wedding Band [S01] (2012) HDTVRip | DreamRecords

1 | 4

4.35 ГБ

В этой теме нет новых непрочитанных сообщений. Рок-н-ролл на выезде / Wedding Band [S01] (2012-2013) WEB-DLRip от GeneralFilm | DreamRecords

43 | 11

4.85 ГБ

В этой теме нет новых непрочитанных сообщений. Свадебная церемония / Свадебный Переполох / Band Baaja Baaraat (2010) BDRip 720р от ICG & Generalfilm | L

8 | 2

4.83 ГБ

В этой теме нет новых непрочитанных сообщений. Сверхъестественное / Supernatural [S08] (2012) HDTVRip 720р | DreamRecords

10 | 34

24.77 ГБ

В этой теме нет новых непрочитанных сообщений. Свадебная церемония / Свадебный Переполох / Band Baaja Baaraat (2010) HDRip

42 | 3

1.46 ГБ

В этой теме нет новых непрочитанных сообщений. Свадебная церемония / Свадебный Переполох / Band Baaja Baaraat (2010) BDRip от ICG & Generalfilm | L

29 | 6

2.2 ГБ

В этой теме нет новых непрочитанных сообщений. Футбол. Чемпионат Европы 2012. Группа В. 3-й тур. Португалия - Нидерланды (2012) HDTVRip 720р

0 | 1

3.34 ГБ




Вы не можете начинать темы
Вы не можете отвечать на сообщения
Вы не можете редактировать свои сообщения
Вы не можете удалять свои сообщения
Вы не можете добавлять вложения

Перейти:  
Для Мосгорсуда, Роскомнадзора и рекламодателей: mosgorsud-torrent[собачка]yandex.ru
 Вход
ppkBB3cker v.2 © 2008-2014 @ PPK
[ Time : 0.049s | 14 Queries | GZIP : Off ]

Торрент трекер RUTOR.IN, Не можете зайти на rutor.org? Какой новый адрес рутор? Какое зеркало рутор? Не работает rutor.org и зеркала? Тогда наш торрент специально для вас. Rutor.in неофициальное зеркало rutor. В случае если у Вас заблокирован rutor или вдруг Вы не можете на него зайти, то Вы без труда сможете скачать бесплатно и без рекламы последние новинки кино, игр, сериалов и прочего у нас, на Rutor.in. Не нужно использовать прокси, чтобы зайти на рутор, достаточно воспользоваться нашим ресурсом. Все новые фильмы, игры, сериалы, книги и музыка за 2013 и 2014 годы через торрент бесплатно. Скачивайте фильмы в хорошем качестве, игры для пк, xbox, playstation без регистрации. У нас вы найдете новые Зарубежные сериалы и Русские сериалы 2013, 2014, 2015 годов. Оставайтесь с нами, качайте любимые фильмы, игры, сериалы, книги и музыку.