img image001 image001 image001 image001 image001 image001 image001 image001 image001 image001 image001 image001 image001 image001 image001

Planets Sun Sun Sun
Статистика раздачи
Автор: Снежана | Размер: 4.35 ГБ | Добавлен: 25 июл 2013
Раздают: 1    Качают: 4
Скачать торрент
Скачать торрент
Описание торрента

СообщениеДобавлено: 25 июл 2013 

#77

Название: Свадебные музыканты / Свадебная группа
Оригинальное название: Wedding Band
Год выпуска: 2012
Страна: США
Жанр: Комедия
Продолжительность: 10 х ~ 00:42:00
Перевод: Профессиональный (многоголосый закадровый) - DreamRecords
Субтитры: Нет
Режиссер: Адам Дэвидсон, Кевин Даулинг, Дженнифер Гетцингер

В ролях: Брайан Остин Грин, Питер Кэмбор, Хэролд Перрино, Дерек Миллер, Дженни Уэйд, Мелора Хардин, Кэтрин Фиоре, Билл Блэйр, Кристиан Иджин Линк, Стефен Гроув

Описание: Свадебные музыканты – это история о группе парней, которые мечтают стать звёздами рок-н-ролла, но пока что спасаются от серых будней выступлениями на свадьбах. Заядлые друзья: Томми, вечный холостяк, и Эдди, отец семейства, эти ребята – звёзды выходного дня. Вот только, на вечеринках они не оттягиваются, а работают. Их аудитория – подружки невесты, выпивка для них бесплатна, а надежда всё ещё жива. Группа не остановится ни перед чем, чтобы сделать каждую свадьбу, день рождения или бар-мицву незабываемыми…



Перевод: Ольга Галайда
Озвучка: Михаил Суслов. Владимир Чистохин, Светлана Чистохина, Анастасия Флигина
Алексей Фокин

Работа со звуком: Алексей Фокин



Качество: HDTVRip
Формат: AVI
Видео кодек: XviD
Аудио кодек: MP3
Видео: 720x400, 23.976 fps, 1 245 Kbps, 0.180 bit/pixel
Аудио rus: MP3, 48 kHz, 2 ch, 224 kbps

Добавлена 10-ая серия. Сезон полностью.

01. Pilot
02. Я люблю колледж / I Love College
03. Не забывай обо мне / Don't Forget About Me
04. Время в моей жизни / Time of My Life
05. Отдайся же музыке / Get Down on It
06. Мы — семья / We Are Family
07. Я не хочу взрослеть / I Don't Wanna Grow Up
08. 99 проблем / 99 Problems
09. Личная вселенная / Personal Univers
10. End of the World As We Know It
Format : AVI
Format/Info : Audio Video Interleave
File size : 436 MiB
Duration : 41mn 16s
Overall bit rate : 1 478 Kbps
Writing library : VirtualDub build 32706/release

Video
ID : 0
Format : MPEG-4 Visual
Format profile : Advanced Simple@L5
Format settings, BVOP : 1
Format settings, QPel : No
Format settings, GMC : No warppoints
Format settings, Matrix : Default (MPEG)
Codec ID : XVID
Codec ID/Hint : XviD
Duration : 41mn 16s
Bit rate : 1 245 Kbps
Width : 720 pixels
Height : 400 pixels
Display aspect ratio : 16:9
Frame rate : 23.976 fps
Color space : YUV
Chroma subsampling : 4:2:0
Bit depth : 8 bits
Scan type : Progressive
Compression mode : Lossy
Bits/(Pixel*Frame) : 0.180
Stream size : 368 MiB (84id=863 alt=':Wacko:'
Writing library : XviD 64

Audio
ID : 1
Format : MPEG Audio
Format version : Version 1
Format profile : Layer 3
Mode : Joint stereo
Codec ID : 55
Codec ID/Hint : MP3
Duration : 41mn 16s
Bit rate mode : Constant
Bit rate : 224 Kbps
Channel(s) : 2 channels
Sampling rate : 48.0 KHz
Compression mode : Lossy
Stream size : 66.1 MiB (15id=863 alt=':Wacko:'
Alignment : Split accross interleaves
Interleave, duration : 42 ms (1.00 video frame)
Interleave, preload duration : 500 ms

Релиз от:



   Похожие торренты   Торрент   Размер 
В этой теме нет новых непрочитанных сообщений. Свадебные музыканты / Свадебная группа / Wedding Band [S01] (2012) HDTVRip 720р | DreamRecords

0 | 1

14.14 ГБ

В этой теме нет новых непрочитанных сообщений. Рок-н-ролл на выезде / Wedding Band [S01] (2012-2013) WEB-DLRip от GeneralFilm | DreamRecords

43 | 11

4.85 ГБ

В этой теме нет новых непрочитанных сообщений. Свадебная церемония / Свадебный Переполох / Band Baaja Baaraat (2010) HDRip

42 | 3

1.46 ГБ

В этой теме нет новых непрочитанных сообщений. Свадебная церемония / Свадебный Переполох / Band Baaja Baaraat (2010) BDRip от ICG & Generalfilm | L

29 | 6

2.2 ГБ

В этой теме нет новых непрочитанных сообщений. Свадебная церемония / Свадебный Переполох / Band Baaja Baaraat (2010) BDRip 720р от ICG & Generalfilm | L

8 | 2

4.83 ГБ

В этой теме нет новых непрочитанных сообщений. Сборник - Золотые Свадебные (2012) MP3

119 | 6

678.04 МБ

В этой теме нет новых непрочитанных сообщений. Сверхъестественное / Supernatural [S08] (2012) HDTVRip | DreamRecords

163 | 39

9.97 ГБ




Вы не можете начинать темы
Вы не можете отвечать на сообщения
Вы не можете редактировать свои сообщения
Вы не можете удалять свои сообщения
Вы не можете добавлять вложения

Перейти:  
Для Мосгорсуда, Роскомнадзора и рекламодателей: mosgorsud-torrent[собачка]yandex.ru
 Вход
ppkBB3cker v.2 © 2008-2014 @ PPK
[ Time : 1.358s | 14 Queries | GZIP : Off ]

Торрент трекер RUTOR.IN, Не можете зайти на rutor.org? Какой новый адрес рутор? Какое зеркало рутор? Не работает rutor.org и зеркала? Тогда наш торрент специально для вас. Rutor.in неофициальное зеркало rutor. В случае если у Вас заблокирован rutor или вдруг Вы не можете на него зайти, то Вы без труда сможете скачать бесплатно и без рекламы последние новинки кино, игр, сериалов и прочего у нас, на Rutor.in. Не нужно использовать прокси, чтобы зайти на рутор, достаточно воспользоваться нашим ресурсом. Все новые фильмы, игры, сериалы, книги и музыка за 2013 и 2014 годы через торрент бесплатно. Скачивайте фильмы в хорошем качестве, игры для пк, xbox, playstation без регистрации. У нас вы найдете новые Зарубежные сериалы и Русские сериалы 2013, 2014, 2015 годов. Оставайтесь с нами, качайте любимые фильмы, игры, сериалы, книги и музыку.