img image001 image001 image001 image001 image001 image001 image001 image001 image001 image001 image001 image001 image001 image001 image001

Planets Sun Sun Sun
Статистика раздачи
Автор: Снежана | Размер: 4.4 ГБ | Добавлен: 25 июл 2013
Раздают: 23    Качают: 3
Скачать торрент
Скачать торрент
Описание торрента

СообщениеДобавлено: 25 июл 2013 

#77

Название: Убивая время / Час Икс
Оригинальное название: Killing Time
Год выпуска: 2011
Жанр: Криминал, Драма
Режиссер: Мартин Кэмпбелл, Кевин Хукс
В ролях: Дэвид Уэнэм, Диана Гленн, Джон Брамптон, Колин Фрилз, Шон Риз-Уэмисс, Макс Фэйрчайлд, Пол Модер, Керри Уолкер, Бетани Витмор, Терри Норрис

Описание: Фантастический взлет предприимчивого адвоката на запредельную высоту карьеры, самые ужасающие клиенты и самые громкие уголовные процессы трех десятилетий, заоблачные гонорары, вызывающая острую зависть конкурентов слава и тяжеловесный авторитет… Немного кокаина….. Много кокаина…. Ни дня без 1000-долларовой дозы кокаина… Наркоторговля… Позорное разоблачение… Полный крах карьеры… Финансового успеха… Личной жизни…. Приговор… Клетка особо строгого режима… Психопаты и серийные убийцы, готовые прикончить сокамерника его собственной зубной щеткой…. Все прелести коррумпированной тюремной системы… Час-икс и осознание всей глубины пропасти… Борьба за жизнь… Борьба за остатки репутации…. Возвращение к жизни?… Возвращение репутации? … Во всяком случае, заслуживающая всякого уважения попытка…. Нет, эта жизнь достойна не только книг, она достойна экрана!



Страна: Австралия
Продолжительность: 10 x ~ 00:45:00
Перевод: Профессиональный (многоголосый, закадровый) - Sony Turbo
Субтитры: нет



Качество: WEB-DLRip
Формат: AVI
Видео: XviD, 720x400, 25.000 fps, 1145 Kbps
Аудио rus: MP3, 48.0 KHz, 2 ch, 128 Kbps
Аудио eng: MP3, 48.0 KHz, 2 ch, 128 Kbps

Сезон полностью! Приятного просмотра!

General
Complete name : I:Час Икс s01 (Sony Turbo)killing.time.s01e01.web-dlrip.rus.eng.to4ka.tv.avi
Format : AVI
Format/Info : Audio Video Interleave
File size : 450 MiB
Duration : 44mn 25s
Overall bit rate : 1 416 Kbps
Writing application : VirtualDubMod 1.6.0.0 SURROUND (build 2560/release)
Writing library : VirtualDubMod build 2560/release

Video
ID : 0
Format : MPEG-4 Visual
Format profile : Advanced Simple@L5
Format settings, BVOP : 1
Format settings, QPel : No
Format settings, GMC : No warppoints
Format settings, Matrix : Default (MPEG)
Codec ID : XVID
Codec ID/Hint : XviD
Duration : 44mn 25s
Bit rate : 1 145 Kbps
Width : 720 pixels
Height : 400 pixels
Display aspect ratio : 16:9
Frame rate : 25.000 fps
Color space : YUV
Chroma subsampling : 4:2:0
Bit depth : 8 bits
Scan type : Progressive
Compression mode : Lossy
Bits/(Pixel*Frame) : 0.159
Stream size : 364 MiB (81%)
Writing library : XviD 64

Audio #1
ID : 1
Format : MPEG Audio
Format version : Version 1
Format profile : Layer 3
Mode : Joint stereo
Mode extension : MS Stereo
Codec ID : 55
Codec ID/Hint : MP3
Duration : 44mn 25s
Bit rate mode : Constant
Bit rate : 128 Kbps
Channel(s) : 2 channels
Sampling rate : 48.0 KHz
Compression mode : Lossy
Stream size : 40.7 MiB (9%)
Alignment : Aligned on interleaves
Interleave, duration : 40 ms (1.00 video frame)
Interleave, preload duration : 504 ms

Audio #2
ID : 2
Format : MPEG Audio
Format version : Version 1
Format profile : Layer 3
Codec ID : 55
Codec ID/Hint : MP3
Duration : 44mn 25s
Bit rate mode : Constant
Bit rate : 128 Kbps
Channel(s) : 2 channels
Sampling rate : 48.0 KHz
Compression mode : Lossy
Stream size : 40.7 MiB (9%)
Alignment : Split accross interleaves
Interleave, duration : 40 ms (1.00 video frame)
Interleave, preload duration : 500 ms


Релиз от:



   Похожие торренты   Торрент   Размер 
В этой теме нет новых непрочитанных сообщений. Killing Time (1996) PC

12 | 4

473.98 МБ

В этой теме нет новых непрочитанных сообщений. Killing Time (1996) PC | RePack

81 | 3

34.3 МБ

В этой теме нет новых непрочитанных сообщений. Время убивать / The Killing Time (1987) DVDRip от NovaLan

0 | 3

1.38 ГБ

В этой теме нет новых непрочитанных сообщений. Убийство / The Killing [S01] (2011) WEB-DLRip от NovaFilm

7 | 3

5.07 ГБ

В этой теме нет новых непрочитанных сообщений. Убийство / The Killing [S01] (2011) WEB-DLRip | LostFilm

41 | 32

6.16 ГБ

В этой теме нет новых непрочитанных сообщений. Убийство / The Killing [01x01-13 из 13] (2011) WEB-DLRip-AVC

0 | 2

10.94 ГБ

В этой теме нет новых непрочитанных сообщений. Убийство / The Killing [S01-04] (2011-2014) WEB-DLRip, WEBRip | LostFilm

248 | 213

17.14 ГБ




Вы не можете начинать темы
Вы не можете отвечать на сообщения
Вы не можете редактировать свои сообщения
Вы не можете удалять свои сообщения
Вы не можете добавлять вложения

Перейти:  
Для Мосгорсуда, Роскомнадзора и рекламодателей: mosgorsud-torrent[собачка]yandex.ru
 Вход
ppkBB3cker v.2 © 2008-2014 @ PPK
[ Time : 0.043s | 14 Queries | GZIP : Off ]

Торрент трекер RUTOR.IN, Не можете зайти на rutor.org? Какой новый адрес рутор? Какое зеркало рутор? Не работает rutor.org и зеркала? Тогда наш торрент специально для вас. Rutor.in неофициальное зеркало rutor. В случае если у Вас заблокирован rutor или вдруг Вы не можете на него зайти, то Вы без труда сможете скачать бесплатно и без рекламы последние новинки кино, игр, сериалов и прочего у нас, на Rutor.in. Не нужно использовать прокси, чтобы зайти на рутор, достаточно воспользоваться нашим ресурсом. Все новые фильмы, игры, сериалы, книги и музыка за 2013 и 2014 годы через торрент бесплатно. Скачивайте фильмы в хорошем качестве, игры для пк, xbox, playstation без регистрации. У нас вы найдете новые Зарубежные сериалы и Русские сериалы 2013, 2014, 2015 годов. Оставайтесь с нами, качайте любимые фильмы, игры, сериалы, книги и музыку.