img image001 image001 image001 image001 image001 image001 image001 image001 image001 image001 image001 image001 image001 image001 image001

Planets Sun Sun Sun
Статистика раздачи
Автор: Снежана | Размер: 148.81 ГБ | Добавлен: 26 июл 2013
Раздают: 1    Качают: 5
Скачать торрент
Скачать торрент
Описание торрента

СообщениеДобавлено: 26 июл 2013 

#77

Информация о фильме
Название: Тайны Смолвиля
Оригинальное название: Smallville
Год выхода: 2001
Жанр: Фантастика
Режиссер: Джеймс Маршалл, Грег Биман, Майк Рол и другие
В ролях: Том Уэллинг, Майкл Розенбаум, Кристин Кройк, Сэм Джонс III, Эллисон Мэк, Джон Гловер, Аннетт О’Тул, Джон Шнайдер, Эрика Дюранс, Джастин Хартли и другие.

О фильме:
В обычный осенний день на тихий сельский городок Смолвилль обрушивается метериоритный дождь. Семья Кентов находит маленького мальчика рядом с небольшим космическим кораблем. Они его усыновляют, не без помощи миллиардера Лайонела Лутора, чей сын, Лекс также пострадал от метеоритов: он потерял свою рыже-красную копну волос. Вскоре ЛуторКорп строит в окрестностях Смолвилля завод, который становится главным градообразующим предприятием. Проходит двенадцать лет. Найдёныш вымахал до здорового деревенского парня, который успевает и помочь отцу по хозяйству и в школе учиться почти на отлично. Зовут Кларком, он общителен, у него много друзей. Однако есть у него маленький секрет. Он необычайно силен, быстр и неуязвим. Сбитый машиной, он не получает ни царапины и легко находится под водой долгое время. По крайней мере достаточно, чтобы спасти жизнь водителю. Им оказался Лекс Лутор. Между ними завязывается дружба. Однако со временем Лекс всё больше начинает интересоваться, каким образом Кларку удалось спасти его. Несмотря на интерес, Лекс старается заботиться о чете Кентов, стараясь выглядеть достойно в глазах отца Кларка.

Вскоре от своих друзей Пита Росса и Хлои Салливан он узнает, что с момента метеоритного дождя в Смолвилле стали случаться странные вещи. Время от времени, зеленые куски метеоритов (криптонит), дают людям, оказавшимся рядом с ними, необычные способности, свойства которых зависят исключительно от обстоятельств. Причём мутантом можно стать абсолютно неожиданно. Многие поддаются своим низменным страстям и начинают использовать свои способности во зло. Именно с ними и пришлось бороться Кларку. Поначалу, чтобы защитить одноклассников, а затем — просто потому, что так надо. Скоро выясняется, что ЛюторКорп проводила некие секретные исследования метеоритов. Лекс также начинает проявлять интерес к исследованию метеоритов, но выясняет, что это очень опасная область, и засекречивает все исследования. Вместе с тем, желая доказать отцу свои таланты, он начинает работу по становлению новой компании, которая уже не будет подконтрольна его отцу и, более того, превзойдет его.



Страна: США
Продолжительность:~ 00:42:00 серия
Перевод 1: Любительский многоголосый закадровый. [OneFilm]
Перевод 2: Любительский многоголосый закадровый. [Smart`s Studios]
Перевод 3: Профессиональный многоголосый закадровый. [ТВ канал К1]
Автор перевода: [swan]
Субтитры: Русские, английские, украинские, французские.

Файл
Качество: BDRemux
Формат: MKV
Видео кодек: H.264
Аудио кодек: DTS
Видео: AVC, 16:9 (1.78:1), 23.976 fps, 17.2 Mbps, 0.346 bit/pixel.
Аудио 1: DTS-HD Master Audio, 48.0 KHz, 6 ch., 1 561 Kbps / 1 510 Kbps. [Английский, оригинал BD]
Аудио 2: DTS, 48.0 KHz, 6 ch., 1 510 Kbps. [Русский, OneFilmTV]
Аудио 3: DTS, 48.0 KHz, 6 ch., 1 510 Kbps. [Русский, Smart`s Studios]
Аудио 4: АС3, 48.0 KHz, 6 ch., 640 Kbps. [Украинский, ТВ-канал:K1]

Семпл

General
Unique ID : 235770228315898953851206796772014398950 (0xB15FB1BBBC307CB59DC14E45F5A99DE6)
Complete name : M:New TorrentsSmallville.Season-10.1080p.BD Remux.rus.eng.ukrSMALLVILLE_S10_e1.Lazarus.BDRemux.mkv
Format : Matroska
Format version : Version 2
File size : 6.78 GiB
Duration : 42mn 24s
Overall bit rate mode : Variable
Overall bit rate : 22.9 Mbps
Movie name : Smallville S10E01 Lazarus [Rus OneFilmTV | Smart`s Studios] by dimonych
Encoded date : UTC 2012-06-10 07:31:49
Writing application : mkvmerge v5.5.0 ('Healer') built on Apr 6 2012 21:43:24
Writing library : libebml v1.2.3 + libmatroska v1.3.0

Video
ID : 1
Format : AVC
Format/Info : Advanced Video Codec
Format profile : High@L4.0
Format settings, CABAC : Yes
Format settings, ReFrames : 2 frames
Codec ID : V_MPEG4/ISO/AVC
Duration : 42mn 24s
Bit rate mode : Variable
Bit rate : 17.2 Mbps
Width : 1 920 pixels
Height : 1 080 pixels
Display aspect ratio : 16:9
Frame rate : 23.976 fps
Color space : YUV
Chroma subsampling : 4:2:0
Bit depth : 8 bits
Scan type : Progressive
Bits/(Pixel*Frame) : 0.346
Stream size : 5.10 GiB (75%)
Title : Smallville_S10_E1.
Language : English
Default : Yes
Forced : No

Audio #1
ID : 2
Format : DTS
Format/Info : Digital Theater Systems
Format profile : MA / Core
Codec ID : A_DTS
Duration : 42mn 24s
Bit rate mode : Variable
Bit rate : 1 561 Kbps / 1 510 Kbps
Channel(s) : 6 channels
Channel positions : Front: L C R, Side: L R, LFE
Sampling rate : 48.0 KHz
Bit depth : 16 bits
Compression mode : Lossless / Lossy
Title : Original.
Language : English
Default : No
Forced : No

Audio #2
ID : 5
Format : DTS
Format/Info : Digital Theater Systems
Codec ID : A_DTS
Duration : 42mn 24s
Bit rate mode : Constant
Bit rate : 1 510 Kbps
Channel(s) : 6 channels
Channel positions : Front: L C R, Side: L R, LFE
Sampling rate : 48.0 KHz
Bit depth : 24 bits
Compression mode : Lossy
Stream size : 458 MiB (7%)
Title : OneFilmTV @ DTS 5.1 1510 kbps
Language : Russian
Default : Yes
Forced : No

Audio #3
ID : 6
Format : DTS
Format/Info : Digital Theater Systems
Codec ID : A_DTS
Duration : 42mn 24s
Bit rate mode : Constant
Bit rate : 1 510 Kbps
Channel(s) : 6 channels
Channel positions : Front: L C R, Side: L R, LFE
Sampling rate : 48.0 KHz
Bit depth : 24 bits
Compression mode : Lossy
Stream size : 458 MiB (7%)
Title : Smart`s Studios @ DTS 5.1 1510 kbps
Language : Russian
Default : No
Forced : No

Audio #4
ID : 9
Format : AC-3
Format/Info : Audio Coding 3
Mode extension : CM (complete main)
Codec ID : A_AC3
Duration : 42mn 24s
Bit rate mode : Constant
Bit rate : 640 Kbps
Channel(s) : 6 channels
Channel positions : Front: L C R, Side: L R, LFE
Sampling rate : 48.0 KHz
Bit depth : 16 bits
Compression mode : Lossy
Stream size : 194 MiB (3%)
Title : MVO Ukr
Language : Ukrainian
Default : No
Forced : No

Text #1
ID : 3
Format : PGS
Muxing mode : zlib
Codec ID : S_HDMV/PGS
Codec ID/Info : The same subtitle format used on BDs/HD-DVDs
Title : Sub. English.
Language : English
Default : No
Forced : No

Text #2
ID : 4
Format : PGS
Muxing mode : zlib
Codec ID : S_HDMV/PGS
Codec ID/Info : The same subtitle format used on BDs/HD-DVDs
Title : Sub. French
Language : French
Default : No
Forced : No

Text #3
ID : 7
Format : UTF-8
Codec ID : S_TEXT/UTF8
Codec ID/Info : UTF-8 Plain Text
Title : Disabled
Language : Russian
Default : Yes
Forced : No

Text #4
ID : 8
Format : UTF-8
Codec ID : S_TEXT/UTF8
Codec ID/Info : UTF-8 Plain Text
Title : Russian by Swan
Language : Russian
Default : No
Forced : No

Text #5
ID : 10
Format : UTF-8
Codec ID : S_TEXT/UTF8
Codec ID/Info : UTF-8 Plain Text
Title : Sub.Ukr
Language : Ukrainian
Default : No
Forced : No

Menu
00:00:00.000 : en:00:00:00.000
00:01:28.880 : en:00:01:28.880
00:07:46.758 : en:00:07:46.758
00:14:07.138 : en:00:14:07.138
00:18:53.799 : en:00:18:53.799
00:26:49.483 : en:00:26:49.483
00:33:52.864 : en:00:33:52.864
00:41:51.134 : en:00:41:51.134




   Похожие торренты   Торрент   Размер 
В этой теме нет новых непрочитанных сообщений. OST - Тайны Смолвиля / Smallville from AGR (Score) (Unofficial) (2011) MP3

3 | 2

163.51 МБ

В этой теме нет новых непрочитанных сообщений. Тайны Смолвиля / Smallville [S01-10] (2001-2011) WEB-DL, BDRip | CTC

27 | 51

104.49 ГБ

В этой теме нет новых непрочитанных сообщений. Тайны Смолвиля / Smallville [S01-10] (2001-2011) DVDRip, HDTVRip

85 | 58

75.1 ГБ

В этой теме нет новых непрочитанных сообщений. Тайны Смолвиля / Smallville [10x21-22] (2011) HDTVRip | RuSub

0 | 2

700.74 МБ

В этой теме нет новых непрочитанных сообщений. Тайны Смолвиля / Smallville [S10] (2010-2011) BDRip 720p | Ю

103 | 26

49.42 ГБ

В этой теме нет новых непрочитанных сообщений. Тайны Смолвиля / Smallville [10x17] (2011) HDTVRip | RuSub

1 | 2

350.04 МБ

В этой теме нет новых непрочитанных сообщений. Тайны Смолвиля / Smallville [S01-10] (2001-2011) WEB-DLRip, DVDRip, HDRip | СТС

141 | 573

79.92 ГБ




Вы не можете начинать темы
Вы не можете отвечать на сообщения
Вы не можете редактировать свои сообщения
Вы не можете удалять свои сообщения
Вы не можете добавлять вложения

Перейти:  
Для Мосгорсуда, Роскомнадзора и рекламодателей: mosgorsud-torrent[собачка]yandex.ru
 Вход
ppkBB3cker v.2 © 2008-2014 @ PPK
[ Time : 0.073s | 14 Queries | GZIP : Off ]

Торрент трекер RUTOR.IN, Не можете зайти на rutor.org? Какой новый адрес рутор? Какое зеркало рутор? Не работает rutor.org и зеркала? Тогда наш торрент специально для вас. Rutor.in неофициальное зеркало rutor. В случае если у Вас заблокирован rutor или вдруг Вы не можете на него зайти, то Вы без труда сможете скачать бесплатно и без рекламы последние новинки кино, игр, сериалов и прочего у нас, на Rutor.in. Не нужно использовать прокси, чтобы зайти на рутор, достаточно воспользоваться нашим ресурсом. Все новые фильмы, игры, сериалы, книги и музыка за 2013 и 2014 годы через торрент бесплатно. Скачивайте фильмы в хорошем качестве, игры для пк, xbox, playstation без регистрации. У нас вы найдете новые Зарубежные сериалы и Русские сериалы 2013, 2014, 2015 годов. Оставайтесь с нами, качайте любимые фильмы, игры, сериалы, книги и музыку.