img image001 image001 image001 image001 image001 image001 image001 image001 image001 image001 image001 image001 image001 image001 image001

Planets Sun Sun Sun
Статистика раздачи
Автор: Снежана | Размер: 7.04 ГБ | Добавлен: 25 июл 2013
Раздают: 6    Качают: 5
Скачать торрент
Скачать торрент
Описание торрента

СообщениеДобавлено: 25 июл 2013 

#77

Название: Белый воротничок
Оригинальное название: White Collar
Год выпуска: 2012-2013
Жанр: драма, криминал, детектив
Режиссер: Джон Т. Кречмер, Кевин Брэй, Дэнни Гордон
В ролях: Мэтт Бомер, Тим ДиКей, Уилли Гарсон, Тиффани Тиссен, Шариф Аткинс, Марша Томасон, Хилари Бертон, Дайэнн Кэррол, Натали Моралес, Джеймс Ребхорн

Описание: Сериал рассказывает о сотрудничестве гениального мошенника и агента ФБР. Нил Кэффри, невероятно обаятельный преступный ум, наконец-то был пойман своим извечным врагом, отличным агентом государственной безопасности Питером Берком. Когда Нил бежит из тюрьмы, чтобы найти свою пропавшую любовь, Питер ловит его еще раз. Нил предлагает ему не торопиться с отправкой в тюрьму, и рассмотреть возможность сотрудничества. Ведь Нил мог бы помочь словить самых “элитных” преступников, “белых воротничков” преступного мира. Питер понимает, что интуиция и преступный опыт Нила, которых нет у законопослушного агента, могут стать хорошим подспорьем в борьбе с криминалом.



Выпущено: США, Fox Television Studios, Jeff Eastin & Warrior George Productions
Продолжительность: 16 x ~ 00:45:00
Перевод 1: Профессиональный (многоголосый, закадровый) - Rumedia
Перевод 2: Профессиональный (двухголосый, закадровый) - (Gutta, Caps)
Субтитры: Нет

Озвучка: (Rumedia), (Gutta, Caps)
Редактор: Олег Папулов
Перевод: Negenka
Подготовка видео: Koss
Работа со звуком: Baggio

Качество: WEB-DLRip
Формат: AVI
Видео: XviD, ~ 1047 Кбит/с, 624x352
Аудио rus: MP3, 2 ch, 128 Кбит/с
Аудио eng: MP3, 2 ch, 128 Кбит/с

01. Разыскивается / Wanted
02. Разыскивается и особо опасен / Most Wanted
03. Снижение отдачи / Diminishing Returns
04. Прощальный выстрел / Parting Shots
05. Воровская честь / Honor Among Thieves
06. Кризис личности / Identity Crisis
07. Компрометирующие положение / Compromising Positions
08. Древняя история / Ancient History
09. Долой перчатки / Gloves Off
10. Личная заинтересованность / Vested Interest
11. Семейный бизнес / Family Business
12. Brass Tacks
13. Empire City
14. Shoot the Moon
15. The Original
16. На ветру / In the Wind
Формат : AVI
Формат/Информация : Audio Video Interleave
Размер файла : 450 Мбайт
Продолжительность : 42 м.
Общий поток : 1469 Кбит/сек
Программа кодирования : VirtualDubMod 1.5.10.2 (build 2540/release)
Библиотека кодирования : VirtualDubMod build 2540/release

Видео
Идентификатор : 0
Формат : MPEG-4 Visual
Профиль формата : Advanced Simple@L5
Параметр BVOP формата : 2
Параметр QPel формата : Нет
Параметр GMC формата : Без точки перехода
Параметр матрицы формата : Default (MPEG)
Идентификатор кодека : XVID
Идентификатор кодека/Подсказка : XviD
Продолжительность : 42 м.
Битрейт : 1066 Кбит/сек
Ширина : 624 пикс.
Высота : 352 пикс.
Соотношение сторон : 16:9
Частота кадров : 23,976 кадр/сек
Цветовое пространство : YUV
Подвыборка цветности : 4:2:0
Битовая глубина : 8 бит
Тип развёртки : Прогрессивная
Метод сжатия : С потерями
Бит/(Пиксели*Кадры) : 0.202
Размер потока : 327 Мбайт (73%)
Библиотека кодирования : XviD 64

Аудио #1
Идентификатор : 1
Формат : MPEG Audio
Версия формата : Version 1
Профиль формата : Layer 3
Режим : Joint stereo
Расширение режима : MS Stereo
Идентификатор кодека : 55
Идентификатор кодека/Подсказка : MP3
Продолжительность : 42 м.
Вид битрейта : Постоянный
Битрейт : 128 Кбит/сек
Каналы : 2 канала
Частота : 48,0 КГц
Метод сжатия : С потерями
Размер потока : 39,3 Мбайт (9%)
Выравнивание : Соединение по промежуткам
Продолжительность промежутка : 42 мс. (1,00 видеокадр)
Время предзагрузки промежутка : 504 ms

Аудио #2
Идентификатор : 2
Формат : MPEG Audio
Версия формата : Version 1
Профиль формата : Layer 3
Режим : Joint stereo
Расширение режима : MS Stereo
Идентификатор кодека : 55
Идентификатор кодека/Подсказка : MP3
Продолжительность : 42 м.
Вид битрейта : Постоянный
Битрейт : 128 Кбит/сек
Каналы : 2 канала
Частота : 48,0 КГц
Метод сжатия : С потерями
Размер потока : 39,3 Мбайт (9%)
Выравнивание : Соединение по промежуткам
Продолжительность промежутка : 42 мс. (1,00 видеокадр)
Время предзагрузки промежутка : 504 ms

Аудио #3
Идентификатор : 3
Формат : MPEG Audio
Версия формата : Version 1
Профиль формата : Layer 3
Режим : Joint stereo
Расширение режима : MS Stereo
Идентификатор кодека : 55
Идентификатор кодека/Подсказка : MP3
Продолжительность : 42 м.
Вид битрейта : Постоянный
Битрейт : 128 Кбит/сек
Каналы : 2 канала
Частота : 48,0 КГц
Метод сжатия : С потерями
Размер потока : 39,3 Мбайт (9%)
Выравнивание : Соединение по промежуткам
Продолжительность промежутка : 42 мс. (1,00 видеокадр)
Время предзагрузки промежутка : 504 ms


Релиз от:



   Похожие торренты   Торрент   Размер 
В этой теме нет новых непрочитанных сообщений. Белый воротничок / White Collar [S04] (2012-2013) WEB-DLRip | NewStudio

8 | 3

13.31 ГБ

В этой теме нет новых непрочитанных сообщений. Белый воротничок / White Collar [S03] (2011-2012) WEB-DLRip | NewStudio

46 | 30

12.51 ГБ

В этой теме нет новых непрочитанных сообщений. Белый воротничок / White Collar [S04] (2012) WEB-DLRip | Rumedia, NewStudio

156 | 26

7.04 ГБ

В этой теме нет новых непрочитанных сообщений. Белый воротничок / White Collar [S05] (2013-2014) WEB-DLRip | NewStudio

302 | 46

6.98 ГБ

В этой теме нет новых непрочитанных сообщений. Белый Воротничок / White Collar [S01-05] (2009-2013) WEB-DLRip | NewStudio

60 | 77

32.33 ГБ

В этой теме нет новых непрочитанных сообщений. Белый воротничок / White Collar [S04] (2012-2013) WEB-DL 720p | NewStudio

44 | 5

25.26 ГБ

В этой теме нет новых непрочитанных сообщений. Белый Воротничок / White Collar [S02] (2010) WEB-DLRip | NewStudio

46 | 36

8.25 ГБ




Вы не можете начинать темы
Вы не можете отвечать на сообщения
Вы не можете редактировать свои сообщения
Вы не можете удалять свои сообщения
Вы не можете добавлять вложения

Перейти:  
Для Мосгорсуда, Роскомнадзора и рекламодателей: mosgorsud-torrent[собачка]yandex.ru
 Вход
ppkBB3cker v.2 © 2008-2014 @ PPK
[ Time : 0.063s | 16 Queries | GZIP : Off ]

Торрент трекер RUTOR.IN, Не можете зайти на rutor.org? Какой новый адрес рутор? Какое зеркало рутор? Не работает rutor.org и зеркала? Тогда наш торрент специально для вас. Rutor.in неофициальное зеркало rutor. В случае если у Вас заблокирован rutor или вдруг Вы не можете на него зайти, то Вы без труда сможете скачать бесплатно и без рекламы последние новинки кино, игр, сериалов и прочего у нас, на Rutor.in. Не нужно использовать прокси, чтобы зайти на рутор, достаточно воспользоваться нашим ресурсом. Все новые фильмы, игры, сериалы, книги и музыка за 2013 и 2014 годы через торрент бесплатно. Скачивайте фильмы в хорошем качестве, игры для пк, xbox, playstation без регистрации. У нас вы найдете новые Зарубежные сериалы и Русские сериалы 2013, 2014, 2015 годов. Оставайтесь с нами, качайте любимые фильмы, игры, сериалы, книги и музыку.