img image001 image001 image001 image001 image001 image001 image001 image001 image001 image001 image001 image001 image001 image001 image001

Planets Sun Sun Sun
Статистика раздачи
Автор: Снежана | Размер: 25.26 ГБ | Добавлен: 25 июл 2013
Раздают: 44    Качают: 5
Скачать торрент
Скачать торрент
Описание торрента

СообщениеДобавлено: 25 июл 2013 

#77

Название: Белый воротничок
Оригинальное название: White Collar
Год выпуска: 2012-2013
Жанр: драма, криминал, детектив
Режиссер: Джон Т. Кречмер, Кевин Брэй, Дэнни Гордон
В ролях: Мэтт Бомер, Тим ДиКей, Уилли Гарсон, Тиффани Тиссен, Шариф Аткинс, Марша Томасон, Хилари Бертон, Дайэнн Кэррол, Натали Моралес, Джеймс Ребхорн

Описание: Сериал рассказывает о сотрудничестве гениального мошенника и агента ФБР. Нил Кэффри, невероятно обаятельный преступный ум, наконец-то был пойман своим извечным врагом, отличным агентом государственной безопасности Питером Берком. Когда Нил бежит из тюрьмы, чтобы найти свою пропавшую любовь, Питер ловит его еще раз. Нил предлагает ему не торопиться с отправкой в тюрьму, и рассмотреть возможность сотрудничества. Ведь Нил мог бы помочь словить самых “элитных” преступников, “белых воротничков” преступного мира. Питер понимает, что интуиция и преступный опыт Нила, которых нет у законопослушного агента, могут стать хорошим подспорьем в борьбе с криминалом.



Выпущено: США, Fox Television Studios, Jeff Eastin & Warrior George Productions
Продолжительность: 16 x ~ 00:45:00
Перевод 1: Профессиональный (многоголосый, закадровый) - Rumedia
Перевод 2: Профессиональный (двухголосый, закадровый) - (Gutta, Caps)
Субтитры: Нет

Озвучка: (Rumedia), (Gutta, Caps)
Редактор: Олег Папулов
Перевод: Negenka
Подготовка видео: Koss
Работа со звуком: Baggio

Качество: WEB-DL 720p
Формат: MKV
Видео: MPEG-4 AVC, ~ 4011 Кбит/с, 1280x718
Аудио rus: AC3, 6 ch, 384 Кбит/с
Аудио eng: AC3, 6 ch, 384 Кбит/с

01. Разыскивается / Wanted
02. Разыскивается и особо опасен / Most Wanted
03. Снижение отдачи / Diminishing Returns
04. Прощальный выстрел / Parting Shots
05. Воровская честь / Honor Among Thieves
06. Кризис личности / Identity Crisis
07. Компрометирующие положение / Compromising Positions
08. Древняя история / Ancient History
09. Долой перчатки / Gloves Off
10. Личная заинтересованность / Vested Interest
11. Семейный бизнес / Family Business
12. Brass Tacks
13. Empire City
14. Shoot the Moon
15. The Original
16. На ветру / In the Wind
Формат : Matroska
Размер файла : 1,54 Гбайт
Продолжительность : 43 м.
Общий поток : 5099 Кбит/сек
Название фильма : White Collar S04E11 Family Business
Дата кодирования : UTC 2013-01-31 22:18:24
Программа кодирования : mkvmerge v6.0.0 ('Coming Up For Air') built on Jan 20 2013 09:52:00
Библиотека кодирования : libebml v1.3.0 + libmatroska v1.4.0

Видео
Идентификатор : 1
Формат : AVC
Формат/Информация : Advanced Video Codec
Профиль формата : High@L3.1
Параметр CABAC формата : Нет
Параметр ReFrames формата : 2 кадра
Идентификатор кодека : V_MPEG4/ISO/AVC
Продолжительность : 43 м.
Битрейт : 3846 Кбит/сек
Ширина : 1280 пикс.
Высота : 718 пикс.
Соотношение сторон : 16:9
Частота кадров : 23,976 кадр/сек
Цветовое пространство : YUV
Подвыборка цветности : 4:2:0
Битовая глубина : 8 бит
Тип развёртки : Прогрессивная
Бит/(Пиксели*Кадры) : 0.175
Размер потока : 1,16 Гбайт (75%)
Заголовок : h.264
Язык : English
Основные цвета : BT.709-5, BT.1361, IEC 61966-2-4, SMPTE RP177
Характеристики трансфера : BT.709-5, BT.1361
Коэффициенты матрицы : BT.709-5, BT.1361, IEC 61966-2-4 709, SMPTE RP177

Аудио #1
Идентификатор : 2
Формат : AC-3
Формат/Информация : Audio Coding 3
Расширение режима : CM (complete main)
Идентификатор кодека : A_AC3
Продолжительность : 43 м.
Вид битрейта : Постоянный
Битрейт : 384 Кбит/сек
Каналы : 6 каналов
Расположение каналов : Front: L C R, Side: L R, LFE
Частота : 48,0 КГц
Битовая глубина : 16 бит
Метод сжатия : С потерями
Размер потока : 118 Мбайт (8%)
Заголовок : Rumedia
Язык : Russian

Аудио #2
Идентификатор : 3
Формат : AC-3
Формат/Информация : Audio Coding 3
Расширение режима : CM (complete main)
Идентификатор кодека : A_AC3
Продолжительность : 43 м.
Вид битрейта : Постоянный
Битрейт : 384 Кбит/сек
Каналы : 6 каналов
Расположение каналов : Front: L C R, Side: L R, LFE
Частота : 48,0 КГц
Битовая глубина : 16 бит
Метод сжатия : С потерями
Размер потока : 118 Мбайт (8%)
Заголовок : Gutta & Caps
Язык : Russian

Аудио #3
Идентификатор : 4
Формат : AC-3
Формат/Информация : Audio Coding 3
Расширение режима : CM (complete main)
Идентификатор кодека : A_AC3
Продолжительность : 43 м.
Вид битрейта : Постоянный
Битрейт : 384 Кбит/сек
Каналы : 6 каналов
Расположение каналов : Front: L C R, Side: L R, LFE
Частота : 48,0 КГц
Битовая глубина : 16 бит
Метод сжатия : С потерями
Размер потока : 118 Мбайт (8%)
Заголовок : DD 5.1
Язык : English


Релиз от:



   Похожие торренты   Торрент   Размер 
В этой теме нет новых непрочитанных сообщений. Белый воротничок / White Collar [S04] (2012-2013) WEB-DLRip | NewStudio

8 | 3

13.31 ГБ

В этой теме нет новых непрочитанных сообщений. Белый воротничок / White Collar [S04] (2012-2013) WEB-DLRip | NewStudio

6 | 5

7.04 ГБ

В этой теме нет новых непрочитанных сообщений. Белый воротничок / White Collar [S05] (2013-2014) WEB-DL 720p | NewStudio

50 | 16

19.1 ГБ

В этой теме нет новых непрочитанных сообщений. Белый воротничок / White Collar [S05] (2013) WEB-DL 1080p | NewStudio

27 | 16

22.61 ГБ

В этой теме нет новых непрочитанных сообщений. Белый воротничок / White Collar [S03] (2011-2012) WEB-DLRip | NewStudio

46 | 30

12.51 ГБ

В этой теме нет новых непрочитанных сообщений. Белый воротничок / White Collar [S04] (2012) WEB-DLRip | Rumedia, NewStudio

156 | 26

7.04 ГБ

В этой теме нет новых непрочитанных сообщений. Белый воротничок / White Collar [S05] (2013-2014) WEB-DLRip | NewStudio

302 | 46

6.98 ГБ




Вы не можете начинать темы
Вы не можете отвечать на сообщения
Вы не можете редактировать свои сообщения
Вы не можете удалять свои сообщения
Вы не можете добавлять вложения

Перейти:  
Для Мосгорсуда, Роскомнадзора и рекламодателей: mosgorsud-torrent[собачка]yandex.ru
 Вход
ppkBB3cker v.2 © 2008-2014 @ PPK
[ Time : 0.042s | 17 Queries | GZIP : Off ]

Торрент трекер RUTOR.IN, Не можете зайти на rutor.org? Какой новый адрес рутор? Какое зеркало рутор? Не работает rutor.org и зеркала? Тогда наш торрент специально для вас. Rutor.in неофициальное зеркало rutor. В случае если у Вас заблокирован rutor или вдруг Вы не можете на него зайти, то Вы без труда сможете скачать бесплатно и без рекламы последние новинки кино, игр, сериалов и прочего у нас, на Rutor.in. Не нужно использовать прокси, чтобы зайти на рутор, достаточно воспользоваться нашим ресурсом. Все новые фильмы, игры, сериалы, книги и музыка за 2013 и 2014 годы через торрент бесплатно. Скачивайте фильмы в хорошем качестве, игры для пк, xbox, playstation без регистрации. У нас вы найдете новые Зарубежные сериалы и Русские сериалы 2013, 2014, 2015 годов. Оставайтесь с нами, качайте любимые фильмы, игры, сериалы, книги и музыку.
cron