img image001 image001 image001 image001 image001 image001 image001 image001 image001 image001 image001 image001 image001 image001 image001

Planets Sun Sun Sun
Статистика раздачи
Автор: Снежана | Размер: 16.12 ГБ | Добавлен: 25 июл 2013
Раздают: 10    Качают: 5
Скачать торрент
Скачать торрент
Описание торрента

СообщениеДобавлено: 25 июл 2013 

#77

Информация о фильме
Название: Друзья
Оригинальное название: Friends
Год выхода: 1996-1997
Жанр: Sitcom
Режиссер: David Crane, Marta Kauffman
В ролях: Jennifer Aniston, Courteney Cox Arquette, Lisa Kudrow, Matt LeBlanc, Matthew Perry, David Schwimmer

О фильме:
Главные герои — шестеро друзей — Рейчел, Моника, Фиби, Джоуи, Чендлер и Росс. Три девушки и три парня, которые дружат, живут по соседству, вместе убивают время и противостоят жестокой реальности, делятся своими секретами и иногда очень сильно влюбляются.

Сериал признан одним из лучших комедийных сериалов в истории американского телевидения и стал одним из наиболее заметных проектов 1990-х годов. Сама постановка и творческая группа получили множество наград, в том числе шесть премий «Эмми» и премию «Золотой глобус».

Страна: США
Студия: Канал NBC
Продолжительность: 25 x ∼23мин

Файл
Формат: m4v
Кодек: H.264
Качество: BDRip-AVC
Видео: 1024x576 (16:9), ∼3250kbps, 23,976fps
Звук: AAC, 2 channels, 48.0 KHz, 160kbps VBR
Аудио 1: Русский - профессиональный многоголосый закадровый
Аудио 2: Украинский - профессиональный многоголосый закадровый
Аудио 3: Английский - оригинал
Аудио 4: Французский - дублированный
Аудио 5: Немецкий - дублированный
Субтитры: Английские, французские, немецкие, испанские, португальские, датские, финские, норвежские, шведские, нидерландские
Метатэги: Прописаны
Навигация по главам: есть

Раздача будет полезна пользователям iOS и OS X платформ.
При просмотре на Windows рекомендую пользоваться iTunes или VLC media player.


1 серия

x264 [info]: frame I:303 Avg QP:15.01 size:105573 PSNR Mean Y:48.83 U:52.03 V:53.01 Avg:49.73 Global:48.63
x264 [info]: frame P:6615 Avg QP:17.60 size: 40530 PSNR Mean Y:46.33 U:50.75 V:51.73 Avg:47.42 Global:46.19
x264 [info]: frame B:25747 Avg QP:20.63 size: 11490 PSNR Mean Y:43.13 U:49.31 V:50.41 Avg:44.44 Global:44.16
x264 [info]: consecutive B-frames: 1.8% 0.5% 2.9% 21.5% 21.1% 48.3% 4.0%
x264 [info]: mb I I16..4: 5.8% 69.9% 24.3%
x264 [info]: mb P I16..4: 0.7% 9.8% 3.1% P16..4: 32.2% 31.0% 18.2% 0.0% 0.0% skip: 4.9%
x264 [info]: mb B I16..4: 0.1% 1.1% 0.3% B16..8: 39.6% 12.3% 3.8% direct: 7.4% skip:35.4% L0:41.5% L1:43.0% BI:15.5%
x264 [info]: 8x8 transform intra:72.2% inter:55.6%
x264 [info]: coded y,uvDC,uvAC intra: 94.8% 78.0% 51.0% inter: 36.3% 19.5% 2.1%
x264 [info]: i16 v,h,dc,p: 50% 11% 8% 30%
x264 [info]: i8 v,h,dc,ddl,ddr,vr,hd,vl,hu: 13% 8% 4% 9% 14% 15% 13% 13% 12%
x264 [info]: i4 v,h,dc,ddl,ddr,vr,hd,vl,hu: 11% 7% 2% 9% 15% 17% 13% 14% 12%
x264 [info]: i8c dc,h,v,p: 39% 23% 24% 14%
x264 [info]: Weighted P-Frames: Y:4.3% UV:1.7%
x264 [info]: ref P L0: 44.1% 11.3% 16.7% 8.4% 6.4% 4.8% 3.9% 2.5% 1.8% 0.1% 0.0%
x264 [info]: ref B L0: 77.4% 11.8% 4.4% 2.4% 1.7% 1.2% 0.7% 0.3%
x264 [info]: ref B L1: 95.1% 4.9%
x264 [info]: SSIM Mean Y:0.9803295 (17.062db)
x264 [info]: PSNR Mean Y:43.831 U:49.625 V:50.704 Avg:45.093 Global:44.533 kb/s:3499.29

General
Format : MPEG-4
Codec ID : M4V
File size : 701 MiB
Duration : 22mn 43s
Overall bit rate mode : Variable
Overall bit rate : 4 313 Kbps
Movie name : The One With The Princess Leia Fantasy
Part/Position : 3
Track name/Position : 1
Track name/Total : 25
Performer : Friends
Genre : Sitcom
Recorded date : 1996-09-16
Encoded date : UTC 2013-03-07 17:54:50
Tagged date : UTC 2013-03-12 17:06:27
Cover : Yes
tvsh : Friends
tven : 465251
tvsn : 3
tves : 1
sosn : Friends
desc : Ross reveals a fantasy to Rachel involving a certain "Star Wars" character. Monica suffers from insomnia after her breakup with Richard. And Chandler, back together with Janice, wants Joey to bond with her.
ldes : Ross reveals a fantasy to Rachel involving a certain "Star Wars" character. Monica suffers from insomnia after her breakup with Richard. And Chandler, back together with Janice, wants Joey to bond with her.
hdvd : 1
stik : 10
rtng : 0

Video #1
ID : 1
Format : AVC
Format/Info : Advanced Video Codec
Format profile : High@L4.0
Format settings, CABAC : Yes
Format settings, ReFrames : 9 frames
Codec ID : avc1
Codec ID/Info : Advanced Video Coding
Duration : 22mn 42s
Bit rate mode : Variable
Bit rate : 3 500 Kbps
Width : 1 024 pixels
Height : 576 pixels
Display aspect ratio : 16:9
Frame rate mode : Variable
Frame rate : 23.976 fps
Minimum frame rate : 23.810 fps
Maximum frame rate : 24.390 fps
Color space : YUV
Chroma subsampling : 4:2:0
Bit depth : 8 bits
Scan type : Progressive
Bits/(Pixel*Frame) : 0.247
Stream size : 568 MiB (81%)
Writing library : x264 core 120
Encoding settings : cabac=1 / ref=9 / deblock=1:0:0 / analyse=0x3:0x113 / me=umh / subme=9 / psy=1 / psy_rd=1.00:0.00 / mixed_ref=1 / me_range=32 / chroma_me=1 / trellis=1 / 8x8dct=1 / cqm=0 / deadzone=21,11 / fast_pskip=1 / chroma_qp_offset=-2 / threads=6 / sliced_threads=0 / nr=0 / decimate=1 / interlaced=0 / bluray_compat=0 / constrained_intra=0 / bframes=6 / b_pyramid=2 / b_adapt=2 / b_bias=0 / direct=1 / weightb=1 / open_gop=0 / weightp=2 / keyint=240 / keyint_min=24 / scenecut=40 / intra_refresh=0 / rc_lookahead=40 / rc=2pass / mbtree=1 / bitrate=3500 / ratetol=1.0 / qcomp=0.60 / qpmin=3 / qpmax=69 / qpstep=4 / cplxblur=20.0 / qblur=0.5 / ip_ratio=1.40 / aq=1:1.00
Language : English
Encoded date : UTC 2013-03-07 17:54:50
Tagged date : UTC 2013-03-07 18:01:16
Color primaries : BT.709-5, BT.1361, IEC 61966-2-4, SMPTE RP177
Transfer characteristics : BT.709-5, BT.1361
Matrix coefficients : BT.709-5, BT.1361, IEC 61966-2-4 709, SMPTE RP177

Video #2
ID : 19
Format : JPEG
Codec ID : jpeg
Duration : 22mn 42s
Bit rate mode : Variable
Bit rate : 1 199 bps
Width : 640 pixels
Height : 360 pixels
Display aspect ratio : 16:9
Frame rate mode : Variable
Frame rate : 0.003 fps
Minimum frame rate : 0.002 fps
Maximum frame rate : 0.018 fps
Color space : YUV
Chroma subsampling : 4:2:0
Bit depth : 8 bits
Compression mode : Lossy
Bits/(Pixel*Frame) : 1.735
Stream size : 195 KiB (0%)
Language : English
Encoded date : UTC 2013-03-07 18:01:19
Tagged date : UTC 2013-03-07 18:01:19

Audio #1
ID : 2
Format : AAC
Format/Info : Advanced Audio Codec
Format profile : LC
Codec ID : 40
Duration : 22mn 43s
Bit rate mode : Variable
Bit rate : 160 Kbps
Maximum bit rate : 319 Kbps
Channel(s) : 2 channels
Channel positions : Front: L R
Sampling rate : 48.0 KHz
Compression mode : Lossy
Stream size : 26.0 MiB (4%)
Language : Russian
Encoded date : UTC 2013-03-07 17:54:50
Tagged date : UTC 2013-03-07 18:01:16

Audio #2
ID : 3
Format : AAC
Format/Info : Advanced Audio Codec
Format profile : LC
Codec ID : 40
Duration : 22mn 43s
Bit rate mode : Variable
Bit rate : 159 Kbps
Maximum bit rate : 264 Kbps
Channel(s) : 2 channels
Channel positions : Front: L R
Sampling rate : 48.0 KHz
Compression mode : Lossy
Stream size : 25.9 MiB (4%)
Language : Ukrainian
Encoded date : UTC 2013-03-07 17:54:50
Tagged date : UTC 2013-03-07 18:01:16

Audio #3
ID : 4
Format : AAC
Format/Info : Advanced Audio Codec
Format profile : LC
Codec ID : 40
Duration : 22mn 43s
Bit rate mode : Variable
Bit rate : 160 Kbps
Maximum bit rate : 325 Kbps
Channel(s) : 2 channels
Channel positions : Front: L R
Sampling rate : 48.0 KHz
Compression mode : Lossy
Stream size : 26.0 MiB (4%)
Language : English
Encoded date : UTC 2013-03-07 17:54:50
Tagged date : UTC 2013-03-07 18:01:16

Audio #4
ID : 5
Format : AAC
Format/Info : Advanced Audio Codec
Format profile : LC
Codec ID : 40
Duration : 22mn 43s
Bit rate mode : Variable
Bit rate : 160 Kbps
Maximum bit rate : 322 Kbps
Channel(s) : 2 channels
Channel positions : Front: L R
Sampling rate : 48.0 KHz
Compression mode : Lossy
Stream size : 25.9 MiB (4%)
Language : French
Encoded date : UTC 2013-03-07 17:54:50
Tagged date : UTC 2013-03-07 18:01:16

Audio #5
ID : 6
Format : AAC
Format/Info : Advanced Audio Codec
Format profile : LC
Codec ID : 40
Duration : 22mn 43s
Bit rate mode : Variable
Bit rate : 160 Kbps
Maximum bit rate : 315 Kbps
Channel(s) : 2 channels
Channel positions : Front: L R
Sampling rate : 48.0 KHz
Compression mode : Lossy
Stream size : 26.0 MiB (4%)
Language : German
Encoded date : UTC 2013-03-07 17:54:50
Tagged date : UTC 2013-03-07 18:01:16

Text #1
ID : 7
Format : Timed text
Muxing mode : sbtl
Codec ID : tx3g
Duration : 22mn 40s
Bit rate mode : Variable
Bit rate : 83 bps
Stream size : 13.8 KiB (0%)
Language : English
Encoded date : UTC 2013-03-07 17:54:50
Tagged date : UTC 2013-03-07 18:01:16

Text #2
ID : 8
Format : Timed text
Muxing mode : sbtl
Codec ID : tx3g
Duration : 22mn 40s
Bit rate mode : Variable
Bit rate : 63 bps
Stream size : 10.5 KiB (0%)
Language : French
Encoded date : UTC 2013-03-07 17:54:50
Tagged date : UTC 2013-03-07 18:01:16

Text #3
ID : 9
Format : Timed text
Muxing mode : sbtl
Codec ID : tx3g
Duration : 22mn 40s
Bit rate mode : Variable
Bit rate : 92 bps
Stream size : 15.2 KiB (0%)
Language : German
Encoded date : UTC 2013-03-07 17:54:50
Tagged date : UTC 2013-03-07 18:01:16

Text #4
ID : 10
Format : Timed text
Muxing mode : sbtl
Codec ID : tx3g
Duration : 22mn 40s
Bit rate mode : Variable
Bit rate : 62 bps
Stream size : 10.4 KiB (0%)
Language : Spanish
Encoded date : UTC 2013-03-07 17:54:50
Tagged date : UTC 2013-03-07 18:01:16

Text #5
ID : 11
Format : Timed text
Muxing mode : sbtl
Codec ID : tx3g
Duration : 22mn 40s
Bit rate mode : Variable
Bit rate : 61 bps
Stream size : 10.1 KiB (0%)
Language : Dutch
Encoded date : UTC 2013-03-07 17:54:50
Tagged date : UTC 2013-03-07 18:01:16

Text #6
ID : 12
Format : Timed text
Muxing mode : sbtl
Codec ID : tx3g
Duration : 22mn 40s
Bit rate mode : Variable
Bit rate : 66 bps
Stream size : 11.0 KiB (0%)
Language : Spanish
Encoded date : UTC 2013-03-07 17:54:50
Tagged date : UTC 2013-03-07 18:01:16

Text #7
ID : 13
Format : Timed text
Muxing mode : sbtl
Codec ID : tx3g
Duration : 22mn 40s
Bit rate mode : Variable
Bit rate : 69 bps
Stream size : 11.5 KiB (0%)
Language : Portuguese
Encoded date : UTC 2013-03-07 17:54:50
Tagged date : UTC 2013-03-07 18:01:16

Text #8
ID : 14
Format : Timed text
Muxing mode : sbtl
Codec ID : tx3g
Duration : 22mn 40s
Bit rate mode : Variable
Bit rate : 65 bps
Stream size : 10.8 KiB (0%)
Language : Danish
Encoded date : UTC 2013-03-07 17:54:51
Tagged date : UTC 2013-03-07 18:01:16

Text #9
ID : 15
Format : Timed text
Muxing mode : sbtl
Codec ID : tx3g
Duration : 22mn 40s
Bit rate mode : Variable
Bit rate : 62 bps
Stream size : 10.2 KiB (0%)
Language : Finnish
Encoded date : UTC 2013-03-07 17:54:51
Tagged date : UTC 2013-03-07 18:01:16

Text #10
ID : 16
Format : Timed text
Muxing mode : sbtl
Codec ID : tx3g
Duration : 22mn 40s
Bit rate mode : Variable
Bit rate : 55 bps
Stream size : 9.19 KiB (0%)
Language : Norwegian
Encoded date : UTC 2013-03-07 17:54:51
Tagged date : UTC 2013-03-07 18:01:16

Text #11
ID : 17
Format : Timed text
Muxing mode : sbtl
Codec ID : tx3g
Duration : 22mn 40s
Bit rate mode : Variable
Bit rate : 61 bps
Stream size : 10.1 KiB (0%)
Language : Swedish
Encoded date : UTC 2013-03-07 17:54:51
Tagged date : UTC 2013-03-07 18:01:16

Text #12
ID : 18
Format : Apple text
Codec ID : text
Duration : 22mn 42s
Bit rate mode : Constant
Bit rate : 1 bps
Stream size : 92.0 Bytes (0%)
Language : English
Encoded date : UTC 2013-03-07 18:01:16
Tagged date : UTC 2013-03-07 18:01:16

Menu
00:00:00.000 : Chapter 1
00:01:08.359 : Chapter 2
00:11:05.998 : Chapter 3
00:21:45.637 : Chapter 4



   Похожие торренты   Торрент   Размер 
В этой теме нет новых непрочитанных сообщений. Друзья / Friends [S02] (1995-1996) BDRip-AVC | iPad

16 | 5

14.87 ГБ

В этой теме нет новых непрочитанных сообщений. Друзья / Friends [S04] (1997-1998) BDRip-AVC | iPad

5 | 2

14.06 ГБ

В этой теме нет новых непрочитанных сообщений. Друзья / Friends [S03] (1996-1997) BDRip-AVC от HQCLUB

193 | 45

11.18 ГБ

В этой теме нет новых непрочитанных сообщений. Друзья / Friends [S03] (1996-1997) HDTVRip-AVC

27 | 10

11.08 ГБ

В этой теме нет новых непрочитанных сообщений. Друзья / Friends [S03] (1996-1997) HDTV 720p

38 | 16

20.9 ГБ

В этой теме нет новых непрочитанных сообщений. Друзья / Friends [S07] (2000-2001) BDRip-AVC | iPad

6 | 17

12.7 ГБ

В этой теме нет новых непрочитанных сообщений. Друзья / Friends [S01] (1994-1995) BDRip-AVC | iPad

17 | 4

15.5 ГБ




Вы не можете начинать темы
Вы не можете отвечать на сообщения
Вы не можете редактировать свои сообщения
Вы не можете удалять свои сообщения
Вы не можете добавлять вложения

Перейти:  
Для Мосгорсуда, Роскомнадзора и рекламодателей: mosgorsud-torrent[собачка]yandex.ru
 Вход
ppkBB3cker v.2 © 2008-2014 @ PPK
[ Time : 0.088s | 15 Queries | GZIP : Off ]

Торрент трекер RUTOR.IN, Не можете зайти на rutor.org? Какой новый адрес рутор? Какое зеркало рутор? Не работает rutor.org и зеркала? Тогда наш торрент специально для вас. Rutor.in неофициальное зеркало rutor. В случае если у Вас заблокирован rutor или вдруг Вы не можете на него зайти, то Вы без труда сможете скачать бесплатно и без рекламы последние новинки кино, игр, сериалов и прочего у нас, на Rutor.in. Не нужно использовать прокси, чтобы зайти на рутор, достаточно воспользоваться нашим ресурсом. Все новые фильмы, игры, сериалы, книги и музыка за 2013 и 2014 годы через торрент бесплатно. Скачивайте фильмы в хорошем качестве, игры для пк, xbox, playstation без регистрации. У нас вы найдете новые Зарубежные сериалы и Русские сериалы 2013, 2014, 2015 годов. Оставайтесь с нами, качайте любимые фильмы, игры, сериалы, книги и музыку.