img image001 image001 image001 image001 image001 image001 image001 image001 image001 image001 image001 image001 image001 image001 image001

Planets Sun Sun Sun
Статистика раздачи
Автор: Снежана | Размер: 7.16 ГБ | Добавлен: 25 июл 2013
Раздают: 2    Качают: 4
Скачать торрент
Скачать торрент
Описание торрента

СообщениеДобавлено: 25 июл 2013 

#77

Название: Перевозчик
Оригинальное название: Transporter: The Series
Год выпуска: 2012
Жанр: боевик, экшн, драма, криминал
Субтитры: Нет
Режиссер: Брэд Тернер, Энди Микита, Т.Дж. Скотт
Сценарий: Люк Бессон, Роберт Марк Кэмен, Джозеф Маллози
В ролях: Крис Вэнс,Андреа Ошварт, Дэльфина Шанеак, Чарли Хюбнер, Франсуа Берлеан, Жан-Поль Мано, Джулиан Ричингс, Джейк Майклс, Джош Блэкер, Ной Кэппи

Описание: Перевозчик — экшн-телесериал по мотивам одноимённой серии фильмов Люка Бессона. В центре сюжета бывший сотрудник Сил специального назначения Фрэнк Мартин, ныне перевозчик разных грузов. Он не задает лишних вопросов и всегда соблюдает чёткие правила: "Никогда не изменяй условия сделки", "Никаких имён", "Никогда не открывать груз". Его точность вождения и боевые навыки позволяют ему выжить в самых опасных ситуациях на протяжении всей миссии.

Страна: Канада, Франция, США, Германия
Продолжительность: 12 х ~ 00:45:00
Перевод: Профессиональный (многоголосый, закадровый) - Baibako


Перевод: Дарья Омельяненко
Озвучка: Руслан Иванов, Елена Григорьева, Татьяна Оболевич и Владимир Курдов.
Обложка: Татьяна Saavick

Качество: BDRip-AVC
Формат: MPEG-4
Аудио кодек: AC3
Видео: AVC, ~ 1785 Кбит/с, 1024x576, 25 000 кадров/сек
Аудио rus: 6 ch, 384 Кбит/с, 48,0 КГц

Семпл

Полное имя : M:ПеревозчикTransporter.s01.tahiyTransporter.s01e12.AVC.tahiy.mkv
Формат : Matroska
Версия формата : Version 2
Размер файла : 610 Мбайт
Продолжительность : 45 м.
Общий поток : 1886 Кбит/сек
Название фильма : - = Rip by tahiy = -
Дата кодирования : UTC 2013-03-09 00:27:05
Программа кодирования : mkvmerge v4.0.0 ('The Stars were mine') сборка от Jun 6 2010 16:18:42
Библиотека кодирования : libebml v1.0.0 + libmatroska v1.0.0

Видео
Идентификатор : 1
Формат : AVC
Формат/Информация : Advanced Video Codec
Профиль формата : High@L4.1
Параметр CABAC формата : Да
Параметр ReFrames формата : 8 кадров
Идентификатор кодека : V_MPEG4/ISO/AVC
Продолжительность : 45 м.
Битрейт : 1628 Кбит/сек
Ширина : 1024 пикселя
Высота : 576 пикселей
Соотношение сторон : 16:9
Частота кадров : 25,000 кадров/сек
Цветовое пространство : YUV
Субдискретизация насыщенности : 4:2:0
Битовая глубина : 8 бит
Тип развёртки : Прогрессивная
Бит/(Пиксели*Кадры) : 0.102
Размер потока : 473 Мбайт (78%)
Заголовок : - = Rip by tahiy = -
Библиотека кодирования : x264 core 129 r2245 bc13772
Настройки программы : cabac=1 / ref=8 / deblock=1:-2:-1 / analyse=0x3:0x133 / me=hex / subme=9 / psy=1 / psy_rd=1.00:0.20 / mixed_ref=1 / me_range=16 / chroma_me=1 / trellis=2 / 8x8dct=1 / cqm=0 / deadzone=21,11 / fast_pskip=0 / chroma_qp_offset=-3 / threads=3 / lookahead_threads=1 / sliced_threads=0 / nr=0 / decimate=1 / interlaced=0 / bluray_compat=0 / constrained_intra=0 / bframes=3 / b_pyramid=2 / b_adapt=1 / b_bias=0 / direct=3 / weightb=1 / open_gop=0 / weightp=2 / keyint=250 / keyint_min=25 / scenecut=40 / intra_refresh=0 / rc_lookahead=40 / rc=2pass / mbtree=1 / bitrate=1500 / ratetol=1.0 / qcomp=0.60 / qpmin=10 / qpmax=51 / qpstep=4 / cplxblur=20.0 / qblur=0.5 / ip_ratio=1.40 / aq=1:1.00
Язык : English
Default : Да
Forced : Да

Аудио
Идентификатор : 2
Формат : AC-3
Формат/Информация : Audio Coding 3
Расширение режима : CM (complete main)
Идентификатор кодека : A_AC3
Продолжительность : 45 м.
Вид битрейта : Постоянный
Битрейт : 384 Кбит/сек
Каналы : 6 каналов
Расположение каналов : Front: L C R, Side: L R, LFE
Частота : 48,0 КГц
Битовая глубина : 16 бит
Метод сжатия : С потерями
Размер потока : 124 Мбайт (20%)
Язык : Russian
Default : Да
Forced : Да

Список серий согласно IMDB
01. Троянская лошадиная сила / Trojan Horsepower (Tod dem Fortschritt!)
02. Расплата / Payback (Vergeltung)
03. Дочь генерала / The General's Daughter
04. Отцовская любовь /Harvest (Vaterliebe)
05. Запасной план / Dead Drop (Plan B)
06. Алмазы в крови (Горячий лёд) / Hot Ice (Blutdiamanten)
07. Подай руку помощи / Give the Guy a Hand
08. Акулы / Sharks (Große Haie und Kleine Fische)
09. Город любви / City of Love
10. Подмена / Switch (Echt Falsch)
11. Двенадцать часов / 12 Hours
12. Шерше ля фам / Cherchez La Femme

Список серий согласно озвучиванию BaibaKo
01. Дочь генерала / The General's Daughter (03 из списка А)
02. Отцовская любовь / Harvest (Vaterliebe) (04 из списка А)
03. Подмена / Switch (Echt Falsch) (10 из списка А)
04. Запасной план / Dead Drop (Plan B) (05 из списка А)
05. Расплата / Payback (Vergeltung) (02 из списка А)
06. Троянская лошадиная сила / Trojan Horsepower (Tod dem Fortschritt!) (01 из списка А)
07. Акулы / Sharks (Große Haie und Kleine Fische) (08 из списка А)
08. Алмазы в крови (Горячий лёд) / Hot Ice (Blutdiamanten) (06 из списка А)
09. Город любви / City of Love (09 из списка А)
10. Шерше ля фам / Cherchez La Femme (12 из списка А)
11. Двенадцать часов / 12 Hours (11 из списка А)
12. Подай руку помощи / Give the Guy a Hand (07 из списка А)





Релиз от:



   Похожие торренты   Торрент   Размер 
В этой теме нет новых непрочитанных сообщений. Перевозчик / Transporter: The Series [S01] (2012) BDRip | Baibako

5 | 3

7.22 ГБ

В этой теме нет новых непрочитанных сообщений. Перевозчик / Transporter: The Series [S01] (2012) BDRip-AVC | Baibako

0 | 2

7.31 ГБ

В этой теме нет новых непрочитанных сообщений. Перевозчик / Transporter: The Series [S01] (2012) BDRip | LostFilm

116 | 44

7.74 ГБ

В этой теме нет новых непрочитанных сообщений. Перевозчик / Transporter: The Series [S01] (2012) BDRip 1080p | Baibako

0 | 10

34.06 ГБ

В этой теме нет новых непрочитанных сообщений. Перевозчик / Transporter: The Series [S01] (2012) BDRip 720p | LostFilm

2 | 6

18.34 ГБ

В этой теме нет новых непрочитанных сообщений. Перевозчик / Transporter: The Series [S01] (2012) BDRip-AVC | LostFilm, Baibako, Интер

43 | 12

10.19 ГБ

В этой теме нет новых непрочитанных сообщений. Перевозчик / Transporter: The Series [S01] (2012) BDRip 1080p | Baibako, LostFilm

6 | 10

34.79 ГБ




Вы не можете начинать темы
Вы не можете отвечать на сообщения
Вы не можете редактировать свои сообщения
Вы не можете удалять свои сообщения
Вы не можете добавлять вложения

Перейти:  
Для Мосгорсуда, Роскомнадзора и рекламодателей: mosgorsud-torrent[собачка]yandex.ru
 Вход
ppkBB3cker v.2 © 2008-2014 @ PPK
[ Time : 0.560s | 14 Queries | GZIP : Off ]

Торрент трекер RUTOR.IN, Не можете зайти на rutor.org? Какой новый адрес рутор? Какое зеркало рутор? Не работает rutor.org и зеркала? Тогда наш торрент специально для вас. Rutor.in неофициальное зеркало rutor. В случае если у Вас заблокирован rutor или вдруг Вы не можете на него зайти, то Вы без труда сможете скачать бесплатно и без рекламы последние новинки кино, игр, сериалов и прочего у нас, на Rutor.in. Не нужно использовать прокси, чтобы зайти на рутор, достаточно воспользоваться нашим ресурсом. Все новые фильмы, игры, сериалы, книги и музыка за 2013 и 2014 годы через торрент бесплатно. Скачивайте фильмы в хорошем качестве, игры для пк, xbox, playstation без регистрации. У нас вы найдете новые Зарубежные сериалы и Русские сериалы 2013, 2014, 2015 годов. Оставайтесь с нами, качайте любимые фильмы, игры, сериалы, книги и музыку.