img image001 image001 image001 image001 image001 image001 image001 image001 image001 image001 image001 image001 image001 image001 image001

Planets Sun Sun Sun
Статистика раздачи
Автор: Снежана | Размер: 7.63 ГБ | Добавлен: 25 июл 2013
Раздают: 59    Качают: 13
Скачать торрент
Скачать торрент
Описание торрента

СообщениеДобавлено: 25 июл 2013 

#77

Информация о фильме
Название: Лето волков / Капли крови на цветущем вереске
Год выпуска: 2011
Жанр: Военная драма
Режиссер: Дмитрий Иосифов
В ролях: Алексей Бардуков, Юлия Пересильд, Вера Кавалерова, Михаил Евланов, Игорь Скляр, Сергей Колтаков, Александр Воробьёв, Сергей Власов, Мария Куликова, Петр Томашевский, Анна Полупанова, Максим Житник, Алексей Морозов



О фильме:
События фильма происходят в белорусской деревне в 1944 году, время, когда наша земля была освобождена от оккупантов.Приход советских войск в Белоруссию был воспринят неоднозначно. Многие радовались освобождению от фашистов, часть населения, как и раньше, была против советского режима. Какая судьба ожидает выживших в страшном огне войны? Сотни деревень сожжены дотла, города стоят в сплошных руинах. Русский сериал "Капли крови на цветущем вереске" очень символичен и затрагивает множество спорных тем. Не все захотят услышать правду, но такие найдутся обязательно!



Выпущено: Россия / Кинокомпания «Дирекция кино» Первый канал
Продолжительность: 6 х ~ 00:50:00
Язык: Русский




Файл
Качество: BDRip 720
Видео: AVC, 1280x720 (16:9), 24.000 fps, ~2 999 Kbps
Звук: AC-3, 48.0 KHz, 6 ch, 384 Kbps




Релиз от: &

Общее
Уникальный идентификатор : 170463707144279741212720496073643284491 (0x803E1DA533E13C7AB75CD0C24E82580B)
Полное имя : F:лето волковLeto.volkov.BDRip720.Torrent-XzonaLeto.volkov.(3.serija.iz.6)BDRip.720.Torrent-Xzona.mkv
Формат : Matroska
Версия формата : Version 4 / Version 2
Размер файла : 1,26 Гбайт
Продолжительность : 53 м.
Общий поток : 3384 Кбит/сек
Дата кодирования : UTC 2013-03-06 18:03:55
Программа кодирования : mkvmerge v6.0.0 ('Coming Up For Air') built on Jan 20 2013 09:52:00
Библиотека кодирования : libebml v1.3.0 + libmatroska v1.4.0

Видео
Идентификатор : 1
Формат : AVC
Формат/Информация : Advanced Video Codec
Профиль формата : High@L4.1
Параметр CABAC формата : Да
Параметр ReFrames формата : 5 кадров
Идентификатор кодека : V_MPEG4/ISO/AVC
Продолжительность : 53 м.
Битрейт : 2999 Кбит/сек
Ширина : 1280 пикселей
Высота : 720 пикселей
Соотношение сторон : 16:9
Режим частоты кадров : Постоянный
Частота кадров : 24,000 кадра/сек
Цветовое пространство : YUV
Субдискретизация насыщенности : 4:2:0
Битовая глубина : 8 бит
Тип развёртки : Прогрессивная
Бит/(Пиксели*Кадры) : 0.136
Размер потока : 1,09 Гбайт (87%)
Библиотека кодирования : x264 core 129 r2230 1cffe9f
Настройки программы : cabac=1 / ref=5 / deblock=1:-1:-1 / analyse=0x3:0x133 / me=umh / subme=10 / psy=1 / psy_rd=1.00:0.15 / mixed_ref=1 / me_range=16 / chroma_me=1 / trellis=2 / 8x8dct=1 / cqm=0 / deadzone=21,11 / fast_pskip=1 / chroma_qp_offset=-3 / threads=9 / lookahead_threads=1 / sliced_threads=0 / nr=0 / decimate=1 / interlaced=0 / bluray_compat=0 / constrained_intra=0 / bframes=5 / b_pyramid=2 / b_adapt=2 / b_bias=0 / direct=1 / weightb=1 / open_gop=0 / weightp=2 / keyint=240 / keyint_min=23 / scenecut=40 / intra_refresh=0 / rc_lookahead=60 / rc=2pass / mbtree=1 / bitrate=2999 / ratetol=1.0 / qcomp=0.60 / qpmin=0 / qpmax=69 / qpstep=4 / cplxblur=20.0 / qblur=0.5 / ip_ratio=1.40 / aq=1:1.00
Язык : English
Default : Да
Forced : Нет

Аудио
Идентификатор : 2
Формат : AC-3
Формат/Информация : Audio Coding 3
Расширение режима : CM (complete main)
Параметр Endianness формата : Big
Идентификатор кодека : A_AC3
Продолжительность : 53 м.
Вид битрейта : Постоянный
Битрейт : 384 Кбит/сек
Каналы : 6 каналов
Расположение каналов : Front: L C R, Side: L R, LFE
Частота : 48,0 КГц
Битовая глубина : 16 бит
Метод сжатия : С потерями
Размер потока : 146 Мбайт (11%)
Default : Да
Forced : Нет







   Похожие торренты   Торрент   Размер 
В этой теме нет новых непрочитанных сообщений. Лето волков / Капли крови на цветущем вереске [01-06 из 06] (2011) BDRip 1080 от Torrent-Xzona

693 | 56

6.76 ГБ

В этой теме нет новых непрочитанных сообщений. Лето волков / Капли крови на цветущем вереске [01-06 из 06] (2011) BDRip-AVC от KinoZalSat

36 | 35

6.65 ГБ

В этой теме нет новых непрочитанных сообщений. Лето волков / Капли крови на цветущем вереске [01-06 из 06] (2011) DVD9

25 | 30

7.51 ГБ

В этой теме нет новых непрочитанных сообщений. Лето волков / Капли крови на цветущем вереске [01-06 из 06] (2011) DVDRip от КинозалSAT

718 | 41

4.1 ГБ

В этой теме нет новых непрочитанных сообщений. Лето волков [01-06 из 06] (2011) BDRip

47 | 7

4.33 ГБ

В этой теме нет новых непрочитанных сообщений. Сорванец / Tomboy (2011) BDRip 720 от Torrent-Xzona l Р

0 | 1

4.37 ГБ

В этой теме нет новых непрочитанных сообщений. Зуб и ноготь / До последней капли крови / Tooth And Nail (2007) DVDRip | L1

3 | 2

700.11 МБ




Вы не можете начинать темы
Вы не можете отвечать на сообщения
Вы не можете редактировать свои сообщения
Вы не можете удалять свои сообщения
Вы не можете добавлять вложения

Перейти:  
Для Мосгорсуда, Роскомнадзора и рекламодателей: mosgorsud-torrent[собачка]yandex.ru
 Вход
ppkBB3cker v.2 © 2008-2014 @ PPK
[ Time : 0.029s | 15 Queries | GZIP : Off ]

Торрент трекер RUTOR.IN, Не можете зайти на rutor.org? Какой новый адрес рутор? Какое зеркало рутор? Не работает rutor.org и зеркала? Тогда наш торрент специально для вас. Rutor.in неофициальное зеркало rutor. В случае если у Вас заблокирован rutor или вдруг Вы не можете на него зайти, то Вы без труда сможете скачать бесплатно и без рекламы последние новинки кино, игр, сериалов и прочего у нас, на Rutor.in. Не нужно использовать прокси, чтобы зайти на рутор, достаточно воспользоваться нашим ресурсом. Все новые фильмы, игры, сериалы, книги и музыка за 2013 и 2014 годы через торрент бесплатно. Скачивайте фильмы в хорошем качестве, игры для пк, xbox, playstation без регистрации. У нас вы найдете новые Зарубежные сериалы и Русские сериалы 2013, 2014, 2015 годов. Оставайтесь с нами, качайте любимые фильмы, игры, сериалы, книги и музыку.
cron