img image001 image001 image001 image001 image001 image001 image001 image001 image001 image001 image001 image001 image001 image001 image001

Planets Sun Sun Sun
Статистика раздачи
Автор: Снежана | Размер: 2.02 ГБ | Добавлен: 25 июл 2013
Раздают: 20    Качают: 8
Скачать торрент
Скачать торрент
Описание торрента

СообщениеДобавлено: 25 июл 2013 

#77

Информация о фильме
Название: Перевозчик
Оригинальное название: Transporter: The Series
Год выхода: 2012
Жанр: Боевик, экшн, драма, криминал
Режиссер: Брэд Тернер, Энди Микита, Т.Дж. Скотт
В ролях: Крис Вэнс, Андреа Осварт, Дельфин Шанеак, Чарли Хюбнер, Франсуа Берлеан, Жан-Поль Мано, Джулиан Ричингс, Джейк Майклс, Джош Блэкер, Ной Кэппи, Франсуа Берлан, Мун Дайлли, Франсуа-Эрик Жандрон, Люк Флориан, Лайонел Сесилио, Тристан Робин, Камел Бахаж, Марк Иванир, Дэниэл Фазерс, Эмили Коуттс, Даниел Мандич, Ишан Моррис, Крис Вайолетт, Джейми Спильчук, Уве Оксенкнехт, Рэйчел Скарстен, Джейн МакЛин, Бэрри Флэтмэн, Моника Будайски, Джон Мэйллет, Стефани Жюльен, Томас Люссьони, Терри Кэтлин, Лаура ДеКартере, Колетт Стивенсон

О фильме:
Перевозчик — экшн-телесериал по мотивам одноимённой серии фильмов Люка Бессона. В центре сюжета бывший сотрудник Сил специального назначения Фрэнк Мартин, ныне перевозчик разных грузов. Он не задает лишних вопросов и всегда соблюдает чёткие правила: "Никогда не изменяй условия сделки", "Никаких имён", "Никогда не открывать груз". Его точность вождения и боевые навыки позволяют ему выжить в самых опасных ситуациях на протяжении всей миссии.


Страна: Канада, Франция, США, Германия
Студия: Atlantique Productions, Cinemax, Europa Corp., M6 Metropole Television, QVF Productions, RTL
Продолжительность: 12 х ~00:45:00
Перевод: Профессиональный (многоголосый, закадровый) [Baibako]
Перевод: Дарья Омельяненко
Озвучка: Руслан Иванов, Елена Григорьева, Татьяна Оболевич и Владимир Курдов
Монтаж: Игорь Лихо

Файл
Формат: MP4
Качество: HDRip | КПК
Видео: MPEG-4 AVC (x264), 640x360, 400 kbps, 25.000 fps
Аудио: AAC LC, 48.0 KHz, 2 ch, 128 Kbps
Субтитры: Нет

Семпл


Format : MPEG-4
Format profile : Base Media
Codec ID : isom
File size : 173 MiB
Duration : 45mn 38s
Overall bit rate mode : Variable
Overall bit rate : 530 Kbps
Encoded date : UTC 2013-03-17 18:08:22
Tagged date : UTC 2013-03-17 18:08:22
Video #1
ID : 1
Format : AVC
Format/Info : Advanced Video Codec
Format profile : Baseline@L4.1
Format settings, CABAC : No
Format settings, ReFrames : 6 frames
Codec ID : avc1
Codec ID/Info : Advanced Video Coding
Duration : 45mn 38s
Bit rate : 400 Kbps
Maximum bit rate : 2 909 Kbps
Width : 640 pixels
Height : 360 pixels
Display aspect ratio : 16:9
Frame rate mode : Constant
Frame rate : 25.000 fps
Color space : YUV
Chroma subsampling : 4:2:0
Bit depth : 8 bits
Scan type : Progressive
Bits/(Pixel*Frame) : 0.069
Stream size : 131 MiB (75%)
Writing library : x264 core 116 r2074 2641b9e
Encoding settings : cabac=0 / ref=6 / deblock=1:-1:-1 / analyse=0x1:0x111 / me=umh / subme=7 / psy=1 / psy_rd=1.00:0.00 / mixed_ref=0 / me_range=16 / chroma_me=1 / trellis=1 / 8x8dct=0 / cqm=0 / deadzone=21,11 / fast_pskip=0 / chroma_qp_offset=-2 / threads=3 / sliced_threads=0 / nr=0 / decimate=1 / interlaced=0 / bluray_compat=0 / constrained_intra=0 / bframes=0 / weightp=0 / keyint=250 / keyint_min=25 / scenecut=40 / intra_refresh=0 / rc_lookahead=60 / rc=2pass / mbtree=1 / bitrate=400 / ratetol=1.0 / qcomp=0.60 / qpmin=0 / qpmax=69 / qpstep=4 / cplxblur=20.0 / qblur=0.5 / ip_ratio=1.40 / aq=1:1.00
Encoded date : UTC 2013-03-17 18:08:22
Tagged date : UTC 2013-03-17 18:08:41
Audio #2
ID : 2
Format : AAC
Format/Info : Advanced Audio Codec
Format profile : LC
Codec ID : 40
Duration : 45mn 38s
Bit rate mode : Variable
Bit rate : 128 Kbps
Maximum bit rate : 165 Kbps
Channel(s) : 2 channels
Channel positions : Front: L R
Sampling rate : 48.0 KHz
Compression mode : Lossy
Stream size : 41.8 MiB (24%)
Encoded date : UTC 2013-03-17 18:08:38
Tagged date : UTC 2013-03-17 18:08:41

Релиз от:



   Похожие торренты   Торрент   Размер 
В этой теме нет новых непрочитанных сообщений. Перевозчик / Transporter: The Series [S01] (2012) HDRip | Baibako

68 | 13

8.8 ГБ

В этой теме нет новых непрочитанных сообщений. Перевозчик / Transporter: The Series [S01] (2012) HDRip | Baibako

5 | 6

4.29 ГБ

В этой теме нет новых непрочитанных сообщений. Перевозчик / Transporter: The Series [S01] (2012) BDRip | Baibako

5 | 3

7.22 ГБ

В этой теме нет новых непрочитанных сообщений. Перевозчик / Transporter: The Series [S01] (2012) BDRip-AVC | Baibako

0 | 2

7.31 ГБ

В этой теме нет новых непрочитанных сообщений. Перевозчик / Transporter: The Series [S01] (2012) BDRip 1080p | Baibako

0 | 10

34.06 ГБ

В этой теме нет новых непрочитанных сообщений. Перевозчик / Transporter: The Series [S01] (2012) HDTV 720p | Baibako

3 | 3

17.74 ГБ

В этой теме нет новых непрочитанных сообщений. Перевозчик / Transporter: The Series [S01] (2012) BDRip-AVC | LostFilm, Baibako, Интер

43 | 12

10.19 ГБ




Вы не можете начинать темы
Вы не можете отвечать на сообщения
Вы не можете редактировать свои сообщения
Вы не можете удалять свои сообщения
Вы не можете добавлять вложения

Перейти:  
Для Мосгорсуда, Роскомнадзора и рекламодателей: mosgorsud-torrent[собачка]yandex.ru
 Вход
ppkBB3cker v.2 © 2008-2014 @ PPK
[ Time : 0.057s | 17 Queries | GZIP : Off ]

cron